Поиск

(Smooth Jazz) Marion Meadows - 1998 - Pleasure, FLAC (tracks+.cue), lossless

Треклист:
Marion Meadows - Pleasure
Жанр: Smooth Jazz
Год выпуска: 1998
Формат: FLAC (tracks+.cue)
Битрейт аудио: lossless
Трэклист:
1. January Spring
2. Get Away
3. Picture This
4. Lucky Girl
5. No Other Love
6. Unbreak My Heart
7. Gotta Move On
8. UK Underground
9. A Ce Soir (Until Tonight)
10. Child's Play
Зарелизено на rutracker.org
и
Доп. информация:
 
Лог извлечения EAC
EAC extraction logfile from 6. March 2008, 19:40 for CD
Marion Meadows / Pleasure
Used drive : PLEXTOR DVDR PX-800A Adapter: 4 ID: 0
Read mode : Secure with NO C2, accurate stream, disable cache
Read offset correction : 48
Overread into Lead-In and Lead-Out : No
Used output format : C:\Program Files\Exact Audio Copy\FLAC\FLAC.EXE (User Defined Encoder)
32 kBit/s
Additional command line options : -6 -V -T "ARTIST=%a" -T "TITLE=%t" -T "ALBUM=%g" -T "DATE=%y" -T "TRACKNUMBER=%n" -T "GENRE=%m" -T "COMMENT=EAC FLAC -6" %s
Other options :
Fill up missing offset samples with silence : Yes
Delete leading and trailing silent blocks : No
Native Win32 interface for Win NT & 2000
Track 1
Filename C:\EAC\Marion Meadows - Pleasure (1998) [FLAC]\01 - January Spring.wav
Pre-gap length 0:00:02.42
Peak level 100.0 %
Track quality 100.0 %
Test CRC 6A988983
Copy CRC 6A988983
Copy OK
Track 2
Filename C:\EAC\Marion Meadows - Pleasure (1998) [FLAC]\02 - Get Away.wav
Pre-gap length 0:00:00.09
Peak level 100.0 %
Track quality 100.0 %
Test CRC 58479954
Copy CRC 58479954
Copy OK
Track 3
Filename C:\EAC\Marion Meadows - Pleasure (1998) [FLAC]\03 - Picture This.wav
Peak level 100.0 %
Track quality 100.0 %
Test CRC C4AA9C2C
Copy CRC C4AA9C2C
Copy OK
Track 4
Filename C:\EAC\Marion Meadows - Pleasure (1998) [FLAC]\04 - Luck Girl.wav
Pre-gap length 0:00:00.78
Peak level 100.0 %
Track quality 99.9 %
Test CRC 2B6B639C
Copy CRC 2B6B639C
Copy OK
Track 5
Filename C:\EAC\Marion Meadows - Pleasure (1998) [FLAC]\05 - No Other Love.wav
Pre-gap length 0:00:01.69
Peak level 100.0 %
Track quality 100.0 %
Test CRC 0E9BED57
Copy CRC 0E9BED57
Copy OK
Track 6
Filename C:\EAC\Marion Meadows - Pleasure (1998) [FLAC]\06 - Unbreak My Heart.wav
Pre-gap length 0:00:00.22
Peak level 100.0 %
Track quality 99.9 %
Test CRC 2AD41243
Copy CRC 2AD41243
Copy OK
Track 7
Filename C:\EAC\Marion Meadows - Pleasure (1998) [FLAC]\07 - Gotta Move On.wav
Pre-gap length 0:00:02.25
Peak level 100.0 %
Track quality 99.9 %
Test CRC 91BF2462
Copy CRC 91BF2462
Copy OK
Track 8
Filename C:\EAC\Marion Meadows - Pleasure (1998) [FLAC]\08 - U.K. Underground.wav
Pre-gap length 0:00:00.12
Peak level 100.0 %
Track quality 99.9 %
Test CRC 29AC00A5
Copy CRC 29AC00A5
Copy OK
Track 9
Filename C:\EAC\Marion Meadows - Pleasure (1998) [FLAC]\09 - A ce soir.wav
Peak level 100.0 %
Track quality 100.0 %
Test CRC 1E587BEB
Copy CRC 1E587BEB
Copy OK
Track 10
Filename C:\EAC\Marion Meadows - Pleasure (1998) [FLAC]\10 - Child's Play.wav
Pre-gap length 0:00:02.96
Peak level 100.0 %
Track quality 100.0 %
Test CRC BE4A0724
Copy CRC BE4A0724
Copy OK
No errors occured
End of status report
Приватный:
Нет (DHT включён)
Размер:
364.06 Мб (381,749,676 байт) » файлов: 14
Участники:
0 раздают, 0 качают (0 участников всего)
Внешние участники:
1 раздают, 0 качают (1 участников всего) [ Обновить ]
12:49
2
Нет комментариев. Ваш будет первым!