Поиск

(Smooth Jazz) Richard Smith - Soulidified - 2003, APE (image + .cue), lossless

(Smooth Jazz) Richard Smith - Soulidified - 2003, APE (image + .cue), lossless
Треклист:
Richard Smith - Soulidified
Страна: USA
Жанр: Smooth Jazz
Год выпуска: 2003
Формат: APE (image + .cue)
Битрейт аудио: lossless
Продолжительность: 44:29
Трэклист:
1. (00:04:24) Richard Smith - Soulidified
2. (00:04:10) Richard Smith - Latismo
3. (00:04:07) Richard Smith - Sing A Song
4. (00:04:36) Richard Smith - Gotta Have You
5. (00:04:34) Richard Smith - Whatz Up?
6. (00:04:13) Richard Smith - O' Bluze
7. (00:05:06) Richard Smith - Beyond the Mountains
8. (00:04:46) Richard Smith - Diggin' It
9. (00:04:19) Richard Smith - Inspired By You
10. (00:04:15) Richard Smith - Intimato
Доп. информация:
Featuring:
Jeff Lorber
Brian Bromberg
Brian Culbertson
Jeff Kashiwa
 
Files
Covers.ncd
Richard Smith - Soulidified(ape).cue
Richard Smith - Soulidified.ape
Richard Smith - Soulidified.cue
Richard Smith - Soulidified.log
Richard Smith - Soulidified[rutracker.org].torrent
tau.jpg
 
EAC Log
Exact Audio Copy V0.99 prebeta 4 from 23. January 2008
Отчёт EAC об извлечении, выполненном 4. мая 2008, 16:04
Richard Smith / Soulidified
Дисковод: _NEC DVD_RW ND-3550A Adapter: 1 ID: 0
Режим чтения : Достоверность
Использование точного потока : Да
Отключение кэша аудио : Да
Использование указателей C2 : Нет
Коррекция смещения при чтении : 48
Способность читать области Lead-in и Lead-out : Нет
Заполнение пропущенных сэмплов тишиной : Да
Удаление блоков с тишиной в начале и конце : Нет
При вычислениях CRC использовались нулевые сэмплы : Нет
Интерфейс : Встроенный Win32-интерфейс для Win NT/2000
Выходной формат : Внутренние WAV-операции
Формат сэмплов : 44.100 Гц; 16 бит; стерео
TOC извлечённого CD
Трек | Старт | Длительность | Начальный сектор | Конечный сектор
---------------------------------------------------------------------
1 | 0:00.00 | 4:24.50 | 0 | 19849
2 | 4:24.50 | 4:09.32 | 19850 | 38556
3 | 8:34.07 | 4:07.60 | 38557 | 57141
4 | 12:41.67 | 4:35.70 | 57142 | 77836
5 | 17:17.62 | 4:34.03 | 77837 | 98389
6 | 21:51.65 | 4:12.55 | 98390 | 117344
7 | 26:04.45 | 5:06.07 | 117345 | 140301
8 | 31:10.52 | 4:45.58 | 140302 | 161734
9 | 35:56.35 | 4:19.05 | 161735 | 181164
10 | 40:15.40 | 4:14.17 | 181165 | 200231
Характеристики диапазона извлечения и сообщения об ошибках
Выбранный диапазон
Имя файла F:\Images\Richard Smith\Richard Smith - Soulidified.wav
Пиковый уровень 98.8 %
Качество диапазона 98.2 %
CRC копии EE503860
Копирование... OK
Ошибок не произошло
AccurateRip: сводка
Трек 1 нет в базе данных
Трек 2 нет в базе данных
Трек 3 нет в базе данных
Трек 4 нет в базе данных
Трек 5 нет в базе данных
Трек 6 нет в базе данных
Трек 7 нет в базе данных
Трек 8 нет в базе данных
Трек 9 нет в базе данных
Трек 10 нет в базе данных
Ни одного трека нет в базе AccurateRip
Конец отчёта
 
tau
Приватный:
Нет (DHT включён)
Размер:
294.37 Мб (308,664,778 байт) » файлов: 6
Участники:
0 раздают, 0 качают (0 участников всего)
Внешние участники:
--- [ Обновить ]
12:50
4
Нет комментариев. Ваш будет первым!