Поиск

(Smooth Jazz) Keiko Matsui - Glances Of The Past - 2001, APE (image + .cue), 1411

Треклист:
K_Matsui_ Glances Of The Past
Жанр: Smooth Jazz
Год выпуска: 2001
Формат: APE (image + .cue)
Битрейт аудио: lossless
Трэклист:
1. Dream Walk
2. Bonfire In The Piano
3. Passage
4. A Cat On The Chimney
5. Toward The Sunrise
6. Night Hawk's Dream
7. Steps In The Night
8. Bridge Over The Stars
9. Legend Of The Trees
10. Full Moon And The Shrine
11. Presence Of The Moon
12. Forever, Forever
Доп. информация:
 
Отчёт EAC
Exact Audio Copy V0.99 prebeta 3 from 28. July 2007
Отчёт EAC об извлечении, выполненном 4. января 2008, 23:18
Keiko Matsui / Glances Of The Past
Дисковод: _NEC DVD_RW ND-4550A Adapter: 0 ID: 0
Режим чтения : Достоверность
Использование точного потока : Да
Отключение кэша аудио : Да
Использование указателей C2 : Нет
Коррекция смещения при чтении : 48
Способность читать области Lead-in и Lead-out : Нет
Заполнение пропущенных сэмплов тишиной : Да
Удаление блоков с тишиной в начале и конце : Нет
При вычислениях CRC использовались нулевые сэмплы : Нет
Интерфейс : Встроенный Win32-интерфейс для Win NT/2000
Выходной формат : Внутренние WAV-операции
Формат сэмплов : 44.100 Гц; 16 бит; стерео
TOC извлечённого CD
Трек | Старт | Длительность | Начальный сектор | Конечный сектор
---------------------------------------------------------------------
1 | 0:00.00 | 4:48.65 | 0 | 21664
2 | 4:48.65 | 4:39.08 | 21665 | 42597
3 | 9:27.73 | 4:26.00 | 42598 | 62547
4 | 13:53.73 | 4:35.65 | 62548 | 83237
5 | 18:29.63 | 4:14.50 | 83238 | 102337
6 | 22:44.38 | 5:00.72 | 102338 | 124909
7 | 27:45.35 | 4:16.25 | 124910 | 144134
8 | 32:01.60 | 4:20.30 | 144135 | 163664
9 | 36:22.15 | 4:43.73 | 163665 | 184962
10 | 41:06.13 | 5:02.70 | 184963 | 207682
11 | 46:09.08 | 4:17.57 | 207683 | 227014
12 | 50:26.65 | 4:40.63 | 227015 | 248077
Характеристики диапазона извлечения и сообщения об ошибках
Выбранный диапазон
Имя файла C:\My Music\Keiko Matsui - Glances Of The Past.wav
Пиковый уровень 96.6 %
Качество диапазона 99.9 %
CRC копии 82CEC98F
Копирование... OK
Ошибок не произошло
AccurateRip: сводка
Трек 1 нет в базе данных
Трек 2 нет в базе данных
Трек 3 нет в базе данных
Трек 4 нет в базе данных
Трек 5 нет в базе данных
Трек 6 нет в базе данных
Трек 7 нет в базе данных
Трек 8 нет в базе данных
Трек 9 нет в базе данных
Трек 10 нет в базе данных
Трек 11 нет в базе данных
Трек 12 нет в базе данных
Ни одного трека нет в базе AccurateRip
Конец отчёта
Скачивание доступно после регистрации!!
Приватный:
Нет (DHT включён)
Размер:
358.03 Мб (375,424,274 байт) » файлов: 10
Участники:
0 раздают, 0 качают (0 участников всего)
Внешние участники:
--- [ Обновить ]
11:43
6
Нет комментариев. Ваш будет первым!