Поиск

(Smooth Jazz) Marion Meadows - 2000 - Next To You, FLAC (tracks + .cue), lossless

(Smooth Jazz) Marion Meadows - 2000 - Next To You, FLAC (tracks + .cue), lossless
Треклист:
Marion Meadows - Next To You
Жанр: Smooth Jazz
Год выпуска: 2000
Формат: FLAC (tracks + .cue)
Битрейт аудио: lossless
Трэклист:
1. Miami 4:19
2. Carousel 3:46
3. Blue Cactus 4:21
4. Next To You 5:13
5. Look Inside 4:43
6. The Dance 4:47
7. Any Time Any Place 4:08
8. No Rhyme No Reason 4:16
9. Spend My Life 4:22
10. It's Alright Now 4:28
11. La Samba 6:09
Зарелизено на rutracker.org
и
Доп. информация:
Audio CD (September 26, 2000)
Original Release Date: September 26, 2000
Number of Discs: 1
Label: Heads Up
 
Лог извлечения EAC
EAC extraction logfile from 26. July 2007, 18:20 for CD
Marion Meadows / Next To You
Used drive : TSSTcorpCD/DVDW SH-S182M Adapter: 2 ID: 0
Read mode : Secure with NO C2, accurate stream, disable cache
Read offset correction : 6
Overread into Lead-In and Lead-Out : No
Used output format : C:\EAC\flac-1.1.2-win\bin\flac.exe (User Defined Encoder)
320 kBit/s
Additional command line options : -V -8 -T "artist=%a" -T "title=%t" -T "album=%g" -T "date=%y" -T "tracknumber=%n" -T "genre=%m" %s
Other options :
Fill up missing offset samples with silence : Yes
Delete leading and trailing silent blocks : No
Installed external ASPI interface
Track 1
Filename E:\Marion Meadows - Next To You (2000) [FLAC]\01 - Miami.wav
Pre-gap length 0:00:02.00
Peak level 98.8 %
Track quality 100.0 %
Test CRC 62811CA1
Copy CRC 62811CA1
Copy OK
Track 2
Filename E:\Marion Meadows - Next To You (2000) [FLAC]\02 - Carousel.wav
Peak level 98.8 %
Track quality 100.0 %
Test CRC 3CCF3257
Copy CRC 3CCF3257
Copy OK
Track 3
Filename E:\Marion Meadows - Next To You (2000) [FLAC]\03 - Blue Cactus.wav
Peak level 98.8 %
Track quality 100.0 %
Test CRC 63E03FD8
Copy CRC 63E03FD8
Copy OK
Track 4
Filename E:\Marion Meadows - Next To You (2000) [FLAC]\04 - Next To You.wav
Pre-gap length 0:00:01.02
Peak level 98.8 %
Track quality 99.9 %
Test CRC 021FF8CC
Copy CRC 021FF8CC
Copy OK
Track 5
Filename E:\Marion Meadows - Next To You (2000) [FLAC]\05 - Look Inside.wav
Peak level 98.8 %
Track quality 100.0 %
Test CRC 769920B1
Copy CRC 769920B1
Copy OK
Track 6
Filename E:\Marion Meadows - Next To You (2000) [FLAC]\06 - The Dance.wav
Pre-gap length 0:00:01.02
Peak level 98.8 %
Track quality 99.9 %
Test CRC 67A61036
Copy CRC 67A61036
Copy OK
Track 7
Filename E:\Marion Meadows - Next To You (2000) [FLAC]\07 - Any Time Any Place.wav
Pre-gap length 0:00:01.02
Peak level 98.8 %
Track quality 100.0 %
Test CRC AB7EA477
Copy CRC AB7EA477
Copy OK
Track 8
Filename E:\Marion Meadows - Next To You (2000) [FLAC]\08 - No Rhyme No Reason.wav
Peak level 98.8 %
Track quality 100.0 %
Test CRC 4165348E
Copy CRC 4165348E
Copy OK
Track 9
Filename E:\Marion Meadows - Next To You (2000) [FLAC]\09 - Spend My Life.wav
Pre-gap length 0:00:01.02
Peak level 98.8 %
Track quality 99.9 %
Test CRC 6C84E67C
Copy CRC 6C84E67C
Copy OK
Track 10
Filename E:\Marion Meadows - Next To You (2000) [FLAC]\10 - It's Alright Now.wav
Pre-gap length 0:00:01.02
Peak level 98.8 %
Track quality 100.0 %
Test CRC 8ACC3734
Copy CRC 8ACC3734
Copy OK
Track 11
Filename E:\Marion Meadows - Next To You (2000) [FLAC]\11 - La Samba.wav
Peak level 98.8 %
Track quality 99.9 %
Test CRC 9C664D0D
Copy CRC 9C664D0D
Copy OK
No errors occured
End of status report
Приватный:
Нет (DHT включён)
Размер:
320.53 Мб (336,105,036 байт) » файлов: 21
Участники:
0 раздают, 0 качают (0 участников всего)
Внешние участники:
3 раздают, 1 качают (4 участников всего) [ Обновить ]
11:43
16
Нет комментариев. Ваш будет первым!