Поиск

(Smooth Jazz, Jazz-Pop, Crossover Jazz, Adult Contemporary) Marion Meadows - Dressed To Chill - 2006, FLAC (tracks+.cue), lossless

(Smooth Jazz, Jazz-Pop, Crossover Jazz, Adult Contemporary) Marion Meadows - Dressed To Chill - 2006, FLAC (tracks+.cue), lossless
Треклист:
Marion Meadows - Dressed To Chill
Жанр: Smooth Jazz, Jazz-Pop, Crossover Jazz, Adult Contemporary
Год выпуска: 2006
Формат: FLAC (tracks+.cue)
Битрейт аудио: lossless
Трэклист:
1. Dressed To Chill
2. Remember Me
3. Dance With My Daughter
4. Miss Know It All
5. Bounce
6. I Believe I Can Fly
7. Coco Flow
8. Just My Style
9. Scent Of A Woman
10. Steppers...Let's Do This
11. 1000 Dreams
12. To Love Her
Зарелизено на rutracker.org
и
Доп. информация:
Audio CD (May 23, 2006)
Original Release Date: May 23, 2006
Number of Discs: 1
Label: Heads Up
 
Лог извлечения EAC
EAC extraction logfile from 26. July 2007, 18:44 for CD
Marion Meadows / Dressed To Chill
Used drive : TSSTcorpCD/DVDW SH-S182M Adapter: 2 ID: 0
Read mode : Secure with NO C2, accurate stream, disable cache
Read offset correction : 6
Overread into Lead-In and Lead-Out : No
Used output format : C:\EAC\flac-1.1.2-win\bin\flac.exe (User Defined Encoder)
320 kBit/s
Additional command line options : -V -8 -T "artist=%a" -T "title=%t" -T "album=%g" -T "date=%y" -T "tracknumber=%n" -T "genre=%m" %s
Other options :
Fill up missing offset samples with silence : Yes
Delete leading and trailing silent blocks : No
Installed external ASPI interface
Track 1
Filename E:\Marion Meadows - Dressed To Chill (2006) [FLAC]\01 - Dressed to Chill.wav
Pre-gap length 0:00:02.00
Peak level 96.6 %
Track quality 99.9 %
Test CRC D2C6A802
Copy CRC D2C6A802
Copy OK
Track 2
Filename E:\Marion Meadows - Dressed To Chill (2006) [FLAC]\02 - Remember Me.wav
Pre-gap length 0:00:00.74
Peak level 96.6 %
Track quality 100.0 %
Test CRC C0A1470D
Copy CRC C0A1470D
Copy OK
Track 3
Filename E:\Marion Meadows - Dressed To Chill (2006) [FLAC]\03 - Dance with My Daughter.wav
Pre-gap length 0:00:01.77
Peak level 96.6 %
Track quality 100.0 %
Test CRC 132087E3
Copy CRC 132087E3
Copy OK
Track 4
Filename E:\Marion Meadows - Dressed To Chill (2006) [FLAC]\04 - Miss Know It All.wav
Pre-gap length 0:00:01.14
Peak level 96.6 %
Track quality 100.0 %
Test CRC F4D3A4CD
Copy CRC F4D3A4CD
Copy OK
Track 5
Filename E:\Marion Meadows - Dressed To Chill (2006) [FLAC]\05 - Bounce.wav
Pre-gap length 0:00:02.46
Peak level 96.6 %
Track quality 99.9 %
Test CRC F5C4C3DF
Copy CRC F5C4C3DF
Copy OK
Track 6
Filename E:\Marion Meadows - Dressed To Chill (2006) [FLAC]\06 - I Believe I Can Fly.wav
Pre-gap length 0:00:00.52
Peak level 96.6 %
Track quality 100.0 %
Test CRC B463351C
Copy CRC B463351C
Copy OK
Track 7
Filename E:\Marion Meadows - Dressed To Chill (2006) [FLAC]\07 - Coco Flow.wav
Pre-gap length 0:00:01.49
Peak level 96.6 %
Track quality 100.0 %
Test CRC 74D6A701
Copy CRC 74D6A701
Copy OK
Track 8
Filename E:\Marion Meadows - Dressed To Chill (2006) [FLAC]\08 - Just My Style.wav
Pre-gap length 0:00:01.50
Peak level 96.6 %
Track quality 100.0 %
Test CRC DA9465EA
Copy CRC DA9465EA
Copy OK
Track 9
Filename E:\Marion Meadows - Dressed To Chill (2006) [FLAC]\09 - Scent of a Woman.wav
Pre-gap length 0:00:02.85
Peak level 96.6 %
Track quality 100.0 %
Test CRC AF851E8B
Copy CRC AF851E8B
Copy OK
Track 10
Filename E:\Marion Meadows - Dressed To Chill (2006) [FLAC]\10 - Steppers...Let's Do This.wav
Pre-gap length 0:00:00.88
Peak level 96.6 %
Track quality 99.9 %
Test CRC 77FFE944
Copy CRC 77FFE944
Copy OK
Track 11
Filename E:\Marion Meadows - Dressed To Chill (2006) [FLAC]\11 - 1000 Dreams.wav
Pre-gap length 0:00:01.77
Peak level 96.6 %
Track quality 100.0 %
Test CRC F64A6C66
Copy CRC F64A6C66
Copy OK
Track 12
Filename E:\Marion Meadows - Dressed To Chill (2006) [FLAC]\12 - To Love Her.wav
Pre-gap length 0:00:02.86
Peak level 96.6 %
Track quality 100.0 %
Test CRC F30180C1
Copy CRC F30180C1
Copy OK
No errors occured
End of status report
Скачивание доступно после регистрации!!
Приватный:
Нет (DHT включён)
Размер:
390.97 Мб (409,960,795 байт) » файлов: 26
Участники:
0 раздают, 0 качают (0 участников всего)
Внешние участники:
5 раздают, 1 качают (6 участников всего) [ Обновить ]
11:44
7
Нет комментариев. Ваш будет первым!