Поиск

(Smooth Jazz) Gil Parris - Gil Parris (HDCD) - 1998, FLAC (image + .cue), lossless

(Smooth Jazz) Gil Parris - Gil Parris (HDCD) - 1998, FLAC (image + .cue), lossless
Треклист:
Gil Parris - Gil Parris (HDCD)
Страна: USA
Жанр: Smooth Jazz
Год выпуска: 1998
Формат: FLAC (image + .cue)
Битрейт аудио: lossless
Продолжительность: 49:17:40
Трэклист:
01. It's A Lie
02. Mr. Smooth
03. Don't Let Me Be Lonely Tonight
04. Starting Over
05. Midnight Rendezvous
06. What Will It Take
07. A Rainy Night In Georgia
08. An Ardent Man
09. When Love Was New
10. Listen, I'm Talking
 
Отчёт EAC
Exact Audio Copy V0.99 prebeta 3 from 28. July 2007
Отчёт EAC об извлечении, выполненном 23. мая 2008, 19:46
Gil Parris / Gil Parris
Дисковод: Optiarc DVD RW AD-7173A Adapter: 0 ID: 0
Режим чтения : Достоверность
Использование точного потока : Да
Отключение кэша аудио : Да
Использование указателей C2 : Нет
Коррекция смещения при чтении : 48
Способность читать области Lead-in и Lead-out : Нет
Заполнение пропущенных сэмплов тишиной : Да
Удаление блоков с тишиной в начале и конце : Нет
При вычислениях CRC использовались нулевые сэмплы : Нет
Интерфейс : Встроенный Win32-интерфейс для Win NT/2000
Выходной формат : Пользовательский кодировщик
Выбранный битрейт : 768 kBit/s
Качество : Высокий
Добавление ID3-тэга : Нет
Утилита сжатия : C:\Program Files\Exact Audio Copy\FLAC\FLAC.EXE
Дополнительные параметры : -6 -V -T "ARTIST=%a" -T "TITLE=%t" -T "ALBUM=%g" -T "DATE=%y" -T "TRACKNUMBER=%n" -T "GENRE=%m" -T "COMMENT=%e" %s -o %d
TOC извлечённого CD
Трек | Старт | Длительность | Начальный сектор | Конечный сектор
---------------------------------------------------------------------
1 | 0:00.00 | 6:30.12 | 0 | 29261
2 | 6:30.12 | 4:49.48 | 29262 | 50984
3 | 11:19.60 | 4:00.05 | 50985 | 68989
4 | 15:19.65 | 5:25.57 | 68990 | 93421
5 | 20:45.47 | 6:15.15 | 93422 | 121561
6 | 27:00.62 | 4:56.48 | 121562 | 143809
7 | 31:57.35 | 5:58.20 | 143810 | 170679
8 | 37:55.55 | 6:28.45 | 170680 | 199824
9 | 44:24.25 | 4:53.15 | 199825 | 221814
10 | 49:17.40 | 5:57.50 | 221815 | 248639
Характеристики диапазона извлечения и сообщения об ошибках
Выбранный диапазон
Имя файла C:\Gil Parris - Gil Parris.wav
Пиковый уровень 100.0 %
Качество диапазона 100.0 %
CRC копии BF2A6EDB
Копирование... OK
Ошибок не произошло
AccurateRip: сводка
Трек 1 нет в базе данных
Трек 2 нет в базе данных
Трек 3 нет в базе данных
Трек 4 нет в базе данных
Трек 5 нет в базе данных
Трек 6 нет в базе данных
Трек 7 нет в базе данных
Трек 8 нет в базе данных
Трек 9 нет в базе данных
Трек 10 нет в базе данных
Ни одного трека нет в базе AccurateRip
Конец отчёта
Доп. информация: (Рип с фирменного диска) Label: RcaVictor
Gil Parris - guitar
Bob James - piano
Kip Sophos - bass
Michael Colina - keyboards
Harvey Mason - drums
David Sanborn - sax
ОБЛОЖКИ :
Приватный:
Нет (DHT включён)
Размер:
321.44 Мб (337,056,859 байт) » файлов: 3
Участники:
0 раздают, 0 качают (0 участников всего)
Внешние участники:
--- [ Обновить ]
12:56
3
Нет комментариев. Ваш будет первым!