Поиск

(Smooth Jazz) Chris Standring - Love And Paragraphs - 2008, FLAC (image + .cue), lossless

(Smooth Jazz) Chris Standring - Love And Paragraphs - 2008, FLAC (image + .cue), lossless
Треклист:
Chris Standring - Love And Paragraphs 2008
Страна: USA
Жанр: Smooth Jazz
Год выпуска: 2008
Формат: FLAC (image + .cue)
Битрейт аудио: lossless
Продолжительность: 51 min
Трэклист:
1. Qwertyuiop 4:16
2. Love and Paragraphs 3:51
3. As Luck Would Have It 3:58
4. Have Your Cake and Eat It 4:03
5. Liquid Soul 6:07
6. Ooh Bop 5:35
7. C.S. in the Sunshine 4:11
8. That's What I Thought You Said 4:20
9. Qu'est-ce Que Tu Fais? 4:36
10. Reflection 4:16
 
скрытый текст
Exact Audio Copy V0.99 prebeta 4 from 23. January 2008
Отчёт EAC об извлечении, выполненном 23. мая 2008, 20:44
Chris Standring / Love and Paragraphs
Дисковод: LITE-ON DVDRW SHW-1635S Adapter: 5 ID: 0
Режим чтения : Достоверность
Использование точного потока : Да
Отключение кэша аудио : Да
Использование указателей C2 : Нет
Коррекция смещения при чтении : 6
Способность читать области Lead-in и Lead-out : Нет
Заполнение пропущенных сэмплов тишиной : Да
Удаление блоков с тишиной в начале и конце : Нет
При вычислениях CRC использовались нулевые сэмплы : Нет
Интерфейс : Встроенный Win32-интерфейс для Win NT/2000
Выходной формат : Пользовательский кодировщик
Выбранный битрейт : 768 kBit/s
Качество : Высокий
Добавление ID3-тэга : Нет
Утилита сжатия : C:\Program Files\Exact Audio Copy\FLAC\FLAC.EXE
Дополнительные параметры : -6 -V -T "ARTIST=%a" -T "TITLE=%t" -T "ALBUM=%g" -T "DATE=%y" -T "TRACKNUMBER=%n" -T "GENRE=%m" -T "COMMENT=%e" %s -o %d
TOC извлечённого CD
Трек | Старт | Длительность | Начальный сектор | Конечный сектор
---------------------------------------------------------------------
1 | 0:00.00 | 4:16.33 | 0 | 19232
2 | 4:16.33 | 3:51.40 | 19233 | 36597
3 | 8:07.73 | 3:58.19 | 36598 | 54466
4 | 12:06.17 | 4:03.42 | 54467 | 72733
5 | 16:09.59 | 6:07.43 | 72734 | 100301
6 | 22:17.27 | 5:35.38 | 100302 | 125464
7 | 27:52.65 | 4:11.00 | 125465 | 144289
8 | 32:03.65 | 4:21.08 | 144290 | 163872
9 | 36:24.73 | 4:36.46 | 163873 | 184618
10 | 41:01.44 | 4:16.16 | 184619 | 203834
Характеристики диапазона извлечения и сообщения об ошибках
Выбранный диапазон
Имя файла D:\Chris Standring - Love And Paragraphs 2008\Chris Standring - Love and Paragraphs.wav
Пиковый уровень 99.8 %
Качество диапазона 100.0 %
CRC копии EDDFC52A
Копирование... OK
Ошибок не произошло
AccurateRip: сводка
Трек 1 нет в базе данных
Трек 2 нет в базе данных
Трек 3 нет в базе данных
Трек 4 нет в базе данных
Трек 5 нет в базе данных
Трек 6 нет в базе данных
Трек 7 нет в базе данных
Трек 8 нет в базе данных
Трек 9 нет в базе данных
Трек 10 нет в базе данных
Ни одного трека нет в базе AccurateRip
Конец отчёта
Доп. информация: Label: Ultimate Vibe Recordings
Приватный:
Нет (DHT включён)
Размер:
280.03 Мб (293,637,694 байт) » файлов: 3
Участники:
0 раздают, 0 качают (0 участников всего)
Внешние участники:
7 раздают, 2 качают (9 участников всего) [ Обновить ]
12:57
10
Нет комментариев. Ваш будет первым!