Поиск

(Fusion/Soul-Music/Pop-Jazz) Stanley Clarke & George Duke - The Clarke Duke Project - 1982, FLAC (image + .cue)

Треклист:
Stanley Clarke & George Duke - The Clarke Duke Project
Страна: U.S.A.
Жанр: Fusion/Soul/Pop
Год выпуска: 1982
Формат: FLAC (image + .cue)
Продолжительность: 36:20
Трэклист:
1-WILD DOG (3:30) (G. Duke-S.Clarke)
2-LOUIE LOUIE (5:07) (B. Berry)
3-SWEET BABY (3:48) (G.Duke)
4-I JUST WANT TO LOVE YOU (3:51) (S. Clarke)
5-NEVER JUDGE A COVER BY ITS BOOK (1:44) (S. Clarke)
6-LET'S GET STARTED (3:59) (G.Duke-S.Clarke)
7-WINNERS (4:02) (S. Clarke)
8-TOUCH AND GO (4:38) (S. Clarke-G.Duke-A. Willis)
9-FINDING MY WAY (5:39)(G. Duke)
Доп. информация:
GEORGE DUKE - Keyboards,Vocals,Master Clapper
StTANLEY CLARKE - Basses,Guitars,Sitar,Cello,Vocals
JOHN ROBINSON - drums
Альбом пришёл с нонаме.
Большое спасибо автору релиза- уважаемому rosseforp.
Сканы внутри.
Отдаём должное великим музыкантам, хотя попса конечно крутая, уши в трубочку сворачиваются.
Майкл Джексон отдыхает.
Но для комплекта пусть будет.
 
Отчёт EAC
Exact Audio Copy V0.99 prebeta 4 from 23. January 2008
Отчёт EAC об извлечении, выполненном 24. мая 2008, 12:27
Stanley Clarke & George Duke / The Clarke Duke Project
Дисковод: Optiarc DVD RW AD-7191S Adapter: 4 ID: 0
Режим чтения : Достоверность
Использование точного потока : Да
Отключение кэша аудио : Да
Использование указателей C2 : Да
Коррекция смещения при чтении : 6
Способность читать области Lead-in и Lead-out : Нет
Заполнение пропущенных сэмплов тишиной : Да
Удаление блоков с тишиной в начале и конце : Нет
При вычислениях CRC использовались нулевые сэмплы : Да
Интерфейс : Встроенный Win32-интерфейс для Win NT/2000
Выходной формат : Пользовательский кодировщик
Выбранный битрейт : 320 kBit/s
Качество : Высокий
Добавление ID3-тэга : Да
Утилита сжатия : C:\Program Files\Exact Audio Copy\Flac\flac.exe
Дополнительные параметры : --best -V -T "date=%y" -T "genre=%m" %s
TOC извлечённого CD
Трек | Старт | Длительность | Начальный сектор | Конечный сектор
---------------------------------------------------------------------
1 | 0:00.00 | 3:30.32 | 0 | 15781
2 | 3:30.32 | 5:07.38 | 15782 | 38844
3 | 8:37.70 | 3:47.62 | 38845 | 55931
4 | 12:25.57 | 3:51.35 | 55932 | 73291
5 | 16:17.17 | 1:44.45 | 73292 | 81136
6 | 18:01.62 | 3:58.53 | 81137 | 99039
7 | 22:00.40 | 4:01.70 | 99040 | 117184
8 | 26:02.35 | 4:37.72 | 117185 | 138031
9 | 30:40.32 | 5:39.45 | 138032 | 163501
Характеристики диапазона извлечения и сообщения об ошибках
Выбранный диапазон
Имя файла D:\Музыка\Людям\Новая папка\Stanley Clarke & George Duke - The Clarke Duke Project.wav
Пиковый уровень 100.0 %
Качество диапазона 100.0 %
CRC копии 02E3D3A4
Копирование... OK
Ошибок не произошло
AccurateRip: сводка
Трек 1 точное извлечение (доверие 3) [3A421C4E]
Трек 2 точное извлечение (доверие 3) [A4CEBF13]
Трек 3 точное извлечение (доверие 3) [710261DE]
Трек 4 точное извлечение (доверие 3) [555CCDBD]
Трек 5 точное извлечение (доверие 3) [E8DEE94E]
Трек 6 точное извлечение (доверие 3) [D383CEF0]
Трек 7 точное извлечение (доверие 3) [7B9173B3]
Трек 8 точное извлечение (доверие 3) [77CB220D]
Трек 9 точное извлечение (доверие 3) [6117E143]
Все треки извлечены точно
Конец отчёта
Приватный:
Нет (DHT включён)
Размер:
212.22 Мб (222,532,944 байт) » файлов: 11
Участники:
0 раздают, 0 качают (0 участников всего)
Внешние участники:
1 раздают, 0 качают (1 участников всего) [ Обновить ]
12:58
10
Нет комментариев. Ваш будет первым!