Поиск

(Smooth Jazz) Gil Parris - Strength - 2006, APE (image + .cue), lossless

Треклист:
Gil Parris - Strength
Страна: USA
Жанр: Smooth Jazz
Год выпуска: 2006
Формат: APE (image + .cue)
Битрейт аудио: lossless
Продолжительность: 44:44
Трэклист:
1. Jazz Night Out
2. Ibiza
3. The Duck Walk
4. Together Again
5. Strength
6. When Love Was New
7. At The Metro
8. If It Feels Good
9. Commitment
10. Your Embrace
 
Files
1.jpg
2.jpg
3.jpg
4.jpg
5.jpg
Gil Parris - Strength(ape).cue
Gil Parris - Strength.ape
Gil Parris - Strength.cue
Gil Parris - Strength.log
Gil Parris - Strength.torrent
tau.jpg
 
EAC Log
Exact Audio Copy V0.99 prebeta 4 from 23. January 2008
Отчёт EAC об извлечении, выполненном 25. мая 2008, 11:04
Gil Parris / Strength
Дисковод: _NEC DVD_RW ND-3550A Adapter: 1 ID: 0
Режим чтения : Достоверность
Использование точного потока : Да
Отключение кэша аудио : Да
Использование указателей C2 : Нет
Коррекция смещения при чтении : 48
Способность читать области Lead-in и Lead-out : Нет
Заполнение пропущенных сэмплов тишиной : Да
Удаление блоков с тишиной в начале и конце : Нет
При вычислениях CRC использовались нулевые сэмплы : Нет
Интерфейс : Встроенный Win32-интерфейс для Win NT/2000
Выходной формат : Внутренние WAV-операции
Формат сэмплов : 44.100 Гц; 16 бит; стерео
TOC извлечённого CD
Трек | Старт | Длительность | Начальный сектор | Конечный сектор
---------------------------------------------------------------------
1 | 0:00.00 | 4:26.50 | 0 | 19999
2 | 4:26.50 | 4:44.30 | 20000 | 41329
3 | 9:11.05 | 5:08.05 | 41330 | 64434
4 | 14:19.10 | 5:15.31 | 64435 | 88090
5 | 19:34.41 | 4:15.52 | 88091 | 107267
6 | 23:50.18 | 4:48.72 | 107268 | 128939
7 | 28:39.15 | 4:16.12 | 128940 | 148151
8 | 32:55.27 | 4:04.18 | 148152 | 166469
9 | 36:59.45 | 3:51.38 | 166470 | 183832
10 | 40:51.08 | 3:53.11 | 183833 | 201318
Характеристики диапазона извлечения и сообщения об ошибках
Выбранный диапазон
Имя файла F:\Images\Gil Parris\Gil Parris - Strength.wav
Пиковый уровень 98.8 %
Качество диапазона 100.0 %
CRC копии D9E55B39
Копирование... OK
Ошибок не произошло
AccurateRip: сводка
Трек 1 точное извлечение (доверие 2) [AE2B4A70]
Трек 2 точное извлечение (доверие 2) [0CFC0E86]
Трек 3 точное извлечение (доверие 2) [CA2AD9DD]
Трек 4 точное извлечение (доверие 2) [2108FF57]
Трек 5 точное извлечение (доверие 2) [1492E6CB]
Трек 6 точное извлечение (доверие 2) [F0A3BD2E]
Трек 7 точное извлечение (доверие 2) [9BA8F309]
Трек 8 нет в базе данных
Трек 9 нет в базе данных
Трек 10 нет в базе данных
7 трек(и) скопированы точно
3 трек(и) не содержатся в базе AccurateRip
Некоторые треки не прошли проверку на точность
Конец отчёта
 
tau
Приватный:
Нет (DHT включён)
Размер:
302.33 Мб (317,011,487 байт) » файлов: 10
Участники:
0 раздают, 0 качают (0 участников всего)
Внешние участники:
1 раздают, 0 качают (1 участников всего) [ Обновить ]
12:58
17
Нет комментариев. Ваш будет первым!