Поиск

(Smooth Jazz) Steve Laury - Vineland Dreams - 1996, APE (image + .cue), lossless

(Smooth Jazz) Steve Laury - Vineland Dreams - 1996, APE (image + .cue), lossless
Треклист:
Steve Laury - Vineland Dreams
Страна: USA
Жанр: Smooth Jazz
Год выпуска: 1996
Формат: APE (image + .cue)
Битрейт аудио: lossless
Продолжительность: 49:37:02
Трэклист:
1. Gloria Ann
2. Vineland Dreams
3. Let's Stay Together
4. When Dreams Come True
5. Moon Beneath the Clouds
6. I'll Be There
7. Cara Mia
8. Lullaby for Laura
9. 59th Street
10. Angel
Steve Laury - guitar
Dyncan Moore - drums
Rob Whitlock - keyboards
James Raymond - keyboards
Kevin Hennessy - bass
Bob Magnasun - bass
 
Отчёт EAC
Exact Audio Copy V0.99 prebeta 3 from 28. July 2007
Отчёт EAC об извлечении, выполненном 23. мая 2008, 18:52
Steve Laury / Vineland Dreams
Дисковод: Optiarc DVD RW AD-7173A Adapter: 0 ID: 0
Режим чтения : Достоверность
Использование точного потока : Да
Отключение кэша аудио : Да
Использование указателей C2 : Нет
Коррекция смещения при чтении : 48
Способность читать области Lead-in и Lead-out : Нет
Заполнение пропущенных сэмплов тишиной : Да
Удаление блоков с тишиной в начале и конце : Нет
При вычислениях CRC использовались нулевые сэмплы : Нет
Интерфейс : Встроенный Win32-интерфейс для Win NT/2000
Выходной формат : Внутренние WAV-операции
Формат сэмплов : 44.100 Гц; 16 бит; стерео
TOC извлечённого CD
Трек | Старт | Длительность | Начальный сектор | Конечный сектор
---------------------------------------------------------------------
1 | 0:00.00 | 5:36.37 | 0 | 25236
2 | 5:36.37 | 5:32.58 | 25237 | 50194
3 | 11:09.20 | 5:03.45 | 50195 | 72964
4 | 16:12.65 | 6:27.37 | 72965 | 102026
5 | 22:40.27 | 5:38.65 | 102027 | 127441
6 | 28:19.17 | 4:43.68 | 127442 | 148734
7 | 33:03.10 | 5:17.55 | 148735 | 172564
8 | 38:20.65 | 5:34.37 | 172565 | 197651
9 | 43:55.27 | 5:41.50 | 197652 | 223276
10 | 49:37.02 | 4:28.23 | 223277 | 243399
Характеристики диапазона извлечения и сообщения об ошибках
Выбранный диапазон
Имя файла C:\Steve Laury - Vineland Dreams.wav
Пиковый уровень 100.0 %
Качество диапазона 100.0 %
CRC копии 888E4128
Копирование... OK
Ошибок не произошло
AccurateRip: сводка
Трек 1 нет в базе данных
Трек 2 нет в базе данных
Трек 3 нет в базе данных
Трек 4 нет в базе данных
Трек 5 нет в базе данных
Трек 6 нет в базе данных
Трек 7 нет в базе данных
Трек 8 нет в базе данных
Трек 9 нет в базе данных
Трек 10 нет в базе данных
Ни одного трека нет в базе AccurateRip
Конец отчёта
Доп. информация: Гитарист из группы Fattburger.
Приватный:
Нет (DHT включён)
Размер:
339.92 Мб (356,431,406 байт) » файлов: 4
Участники:
0 раздают, 0 качают (0 участников всего)
Внешние участники:
--- [ Обновить ]
12:56
4
Нет комментариев. Ваш будет первым!