Поиск

(Smooth Jazz) Chieli Minucci & Special EFX - Sweet Surrender - 2007, FLAC (tracks+.cue), lossless

Треклист:
Chieli Minucci & Special EFX - Sweet Surrender
Жанр: Smooth Jazz
Год выпуска: 2007
Формат: FLAC (tracks+.cue)
Битрейт аудио: lossless
Трэклист:
1. Guitarzzz 4:29
2. Mystical 4:10
3. Astralcats 5:44
4. Sweet Surrender 3:48
5. Ascension 6:47
6. Chant 8:07
7. Cry Of My Soul 5:42
8. Play With Me 4:53
9. Rush Hour (Dawn) 1:40
10. Rush Hour (Rush) 3:10
11. Children's Day 6:07
12. New Bop 5:58
13. Au Naturale 5:53
Зарелизено на rutracker.org
и
Доп. информация:
Audio CD (February 27, 2007)
Original Release Date: February 27, 2007
Number of Discs: 1
Label: Shanachie
 
Лог извлечения EAC
EAC extraction logfile from 27. February 2007, 10:56 for CD
Chieli Minucci and Special EFX / Sweet Surrender
Used drive : TSSTcorpCD/DVDW SH-S182M Adapter: 2 ID: 0
Read mode : Secure with NO C2, accurate stream, disable cache
Read offset correction : 6
Overread into Lead-In and Lead-Out : No
Used output format : C:\EAC\flac-1.1.2-win\bin\flac.exe (User Defined Encoder)
320 kBit/s
Additional command line options : -V -8 -T "artist=%a" -T "title=%t" -T "album=%g" -T "date=%y" -T "tracknumber=%n" -T "genre=%m" %s
Other options :
Fill up missing offset samples with silence : Yes
Delete leading and trailing silent blocks : No
Installed external ASPI interface
Track 1
Filename E:\Chieli Minucci & Special EFX - Sweet Surrender (2007) [FLAC]\01 - Guitarzzz.wav
Pre-gap length 0:00:02.00
Peak level 98.8 %
Track quality 100.0 %
Test CRC AF590CF3
Copy CRC AF590CF3
Copy OK
Track 2
Filename E:\Chieli Minucci & Special EFX - Sweet Surrender (2007) [FLAC]\02 - Mystical.wav
Pre-gap length 0:00:02.00
Peak level 98.8 %
Track quality 100.0 %
Test CRC 68BDE401
Copy CRC 68BDE401
Copy OK
Track 3
Filename E:\Chieli Minucci & Special EFX - Sweet Surrender (2007) [FLAC]\03 - Astralcats.wav
Pre-gap length 0:00:02.00
Peak level 98.8 %
Track quality 99.9 %
Test CRC AB18BB41
Copy CRC AB18BB41
Copy OK
Track 4
Filename E:\Chieli Minucci & Special EFX - Sweet Surrender (2007) [FLAC]\04 - Sweet Surrender.wav
Pre-gap length 0:00:02.00
Peak level 88.1 %
Track quality 100.0 %
Test CRC 5494C719
Copy CRC 5494C719
Copy OK
Track 5
Filename E:\Chieli Minucci & Special EFX - Sweet Surrender (2007) [FLAC]\05 - Ascension.wav
Pre-gap length 0:00:02.00
Peak level 89.1 %
Track quality 99.9 %
Test CRC A1601E5F
Copy CRC A1601E5F
Copy OK
Track 6
Filename E:\Chieli Minucci & Special EFX - Sweet Surrender (2007) [FLAC]\06 - Chant.wav
Pre-gap length 0:00:02.00
Peak level 98.8 %
Track quality 100.0 %
Test CRC FE01B9F8
Copy CRC FE01B9F8
Copy OK
Track 7
Filename E:\Chieli Minucci & Special EFX - Sweet Surrender (2007) [FLAC]\07 - Cry Of My Soul.wav
Pre-gap length 0:00:02.00
Peak level 98.8 %
Track quality 100.0 %
Test CRC D1F41F16
Copy CRC D1F41F16
Copy OK
Track 8
Filename E:\Chieli Minucci & Special EFX - Sweet Surrender (2007) [FLAC]\08 - Play With Me.wav
Pre-gap length 0:00:02.00
Peak level 98.8 %
Track quality 100.0 %
Test CRC 02B7E06C
Copy CRC 02B7E06C
Copy OK
Track 9
Filename E:\Chieli Minucci & Special EFX - Sweet Surrender (2007) [FLAC]\09 - Rush Hour (Dawn).wav
Pre-gap length 0:00:02.00
Peak level 98.8 %
Track quality 99.8 %
Test CRC 86164F12
Copy CRC 86164F12
Copy OK
Track 10
Filename E:\Chieli Minucci & Special EFX - Sweet Surrender (2007) [FLAC]\10 - Rush Hour (Rush).wav
Peak level 99.1 %
Track quality 100.0 %
Test CRC 7C7D7E4F
Copy CRC 7C7D7E4F
Copy OK
Track 11
Filename E:\Chieli Minucci & Special EFX - Sweet Surrender (2007) [FLAC]\11 - Children's Day.wav
Pre-gap length 0:00:02.00
Peak level 98.8 %
Track quality 100.0 %
Test CRC D585BF5D
Copy CRC D585BF5D
Copy OK
Track 12
Filename E:\Chieli Minucci & Special EFX - Sweet Surrender (2007) [FLAC]\12 - New Bop.wav
Pre-gap length 0:00:02.00
Peak level 98.8 %
Track quality 99.9 %
Test CRC 014FCDCF
Copy CRC 014FCDCF
Copy OK
Track 13
Filename E:\Chieli Minucci & Special EFX - Sweet Surrender (2007) [FLAC]\13 - Au Naturale.wav
Pre-gap length 0:00:02.00
Peak level 98.8 %
Track quality 100.0 %
Test CRC E675E736
Copy CRC E675E736
Copy OK
No errors occured
End of status report
Скачивание доступно после регистрации!!
Приватный:
Нет (DHT включён)
Размер:
422.81 Мб (443,348,343 байт) » файлов: 22
Участники:
0 раздают, 0 качают (0 участников всего)
Внешние участники:
--- [ Обновить ]
11:30
6
Нет комментариев. Ваш будет первым!