Поиск

(Samba, MPB, Bossa Nova) [CD] Conjunto 3D - Muito na Onda - 1967 (2003 Japan Edition), FLAC (tracks+.cue), lossless

(Samba, MPB, Bossa Nova) [CD] Conjunto 3D - Muito na Onda - 1967 (2003 Japan Edition), FLAC (tracks+.cue), lossless
Conjunto 3D - Muito na Onda
Жанр: Samba, MPB, Bossa Nova
Носитель: CD
Страна-производитель диска (релиза): Япония
Год издания: 1967 (2003)
Издатель (лейбл): Toshiba-EMI
Номер по каталогу: TOCP-66059
Страна исполнителя (группы): Бразилия
Аудиокодек: FLAC (*.flac)
Тип рипа: tracks+.cue
Битрейт аудио: lossless
Продолжительность: 37:56
Источник (релизер): ukasoy (what)
Наличие сканов в содержимом раздачи: нет
Треклист:
01. When the Saints Go Marching In (Trad.) - 2:47
02. Un Homme et Une Femme (Lai-Barouh) - 2:43
03. E Preciso Cantar (M.Valle-P.S.Valle) - 3:01
04. Patruira Samba (Adolfo) - 2:20
05. Roda (Gil-Augusto) - 2:38
06. I've Got You Under My Skin/Night and Day (Porter) - 3:05
07. See You in September (Waine-Edwards) - 2:29
08. Noite dos Mascarados (Buarque) - 2:23
09. Watermellon Man (Hancock-Hendricks) - 2:15
10. Winchester Cathedral (Stephens) - 2:36
11. Canto ou Fuga (Menescal-Boscoli) - 2:50
12. Sonho de Lugar (M.Valle-P.S.Valle) - 1:57
13. Caminhada (Adolfo-Gaspar) - 2:46
14. Retirante (Adolfo-Gaspar) - 4:06
Состав:
Antonio Adolfo - piano
Gusmao - bass
Nelsinho - drums
Helio Delmiro - guitar
Eduardo Conde, Beth Carvalho - vocals
Rubens Bassini, Jorginho Arena - percussion
 
Лог создания рипа
Exact Audio Copy V1.0 beta 3 from 29. August 2011
EAC extraction logfile from 24. August 2016, 21:24
Conjunto 3D / Muito Na Onda
Used drive : HL-DT-STDVDRAM GH24NS50 Adapter: 5 ID: 0
Read mode : Secure
Utilize accurate stream : Yes
Defeat audio cache : Yes
Make use of C2 pointers : No
Read offset correction : 667
Overread into Lead-In and Lead-Out : No
Fill up missing offset samples with silence : Yes
Delete leading and trailing silent blocks : No
Null samples used in CRC calculations : Yes
Used interface : Native Win32 interface for Win NT & 2000
Gap handling : Appended to previous track
Used output format : User Defined Encoder
Selected bitrate : 1024 kBit/s
Quality : High
Add ID3 tag : No
Command line compressor : C:\Program Files (x86)\Exact Audio Copy\FLAC\FLAC.EXE
Additional command line options : -8 -V -T "ARTIST=%artist%" -T "TITLE=%title%" -T "ALBUM=%albumtitle%" -T "DATE=%year%" -T "TRACKNUMBER=%tracknr%" -T "GENRE=%genre%" -T "PERFORMER=%albuminterpret%" -T "COMPOSER=%composer%" %haslyrics%--tag-from-file=LYRICS="%lyricsfile%"%haslyrics% -T "ALBUMARTIST=%albumartist%" -T "DISCNUMBER=%cdnumber%" -T "TOTALDISCS=%totalcds%" -T "TOTALTRACKS=%numtracks%" -T "COMMENT=%comment%" %source% -o %dest%
TOC of the extracted CD
Track | Start | Length | Start sector | End sector
---------------------------------------------------------
1 | 0:00.00 | 2:47.25 | 0 | 12549
2 | 2:47.25 | 2:42.62 | 12550 | 24761
3 | 5:30.12 | 3:01.00 | 24762 | 38336
4 | 8:31.12 | 2:19.38 | 38337 | 48799
5 | 10:50.50 | 2:38.37 | 48800 | 60686
6 | 13:29.12 | 3:05.13 | 60687 | 74574
7 | 16:34.25 | 2:29.37 | 74575 | 85786
8 | 19:03.62 | 2:22.63 | 85787 | 96499
9 | 21:26.50 | 2:15.25 | 96500 | 106649
10 | 23:42.00 | 2:35.62 | 106650 | 118336
11 | 26:17.62 | 2:50.25 | 118337 | 131111
12 | 29:08.12 | 1:56.63 | 131112 | 139874
13 | 31:05.00 | 2:45.62 | 139875 | 152311
14 | 33:50.62 | 4:05.50 | 152312 | 170736
Track 1
Filename K:\EAC\01 - When The Saints Go Marching In.wav
Pre-gap length 0:00:02.00
Peak level 99.5 %
Extraction speed 0.8 X
Track quality 99.9 %
Test CRC CFA44D9F
Copy CRC CFA44D9F
Accurately ripped (confidence 2) [48357C16] (AR v2)
Copy OK
Track 2
Filename K:\EAC\02 - Un Homme Et Une Femme.wav
Pre-gap length 0:00:02.00
Peak level 86.5 %
Extraction speed 1.0 X
Track quality 100.0 %
Test CRC 60CA69E4
Copy CRC 60CA69E4
Accurately ripped (confidence 2) [BCA13AF7] (AR v2)
Copy OK
Track 3
Filename K:\EAC\03 - E Preciso Cantar.wav
Pre-gap length 0:00:02.00
Peak level 94.3 %
Extraction speed 1.1 X
Track quality 100.0 %
Test CRC 5A9522AF
Copy CRC 5A9522AF
Accurately ripped (confidence 2) [77E80D3B] (AR v2)
Copy OK
Track 4
Filename K:\EAC\04 - Patruira Samba.wav
Pre-gap length 0:00:02.00
Peak level 89.5 %
Extraction speed 1.1 X
Track quality 100.0 %
Test CRC 471FF69D
Copy CRC 471FF69D
Accurately ripped (confidence 2) [41B65F6F] (AR v2)
Copy OK
Track 5
Filename K:\EAC\05 - Roda.wav
Pre-gap length 0:00:02.00
Peak level 99.8 %
Extraction speed 1.2 X
Track quality 100.0 %
Test CRC C1626EEE
Copy CRC C1626EEE
Accurately ripped (confidence 2) [4C4B5208] (AR v2)
Copy OK
Track 6
Filename K:\EAC\06 - I've Got You Under My Skin - Night And Day.wav
Pre-gap length 0:00:02.00
Peak level 96.7 %
Extraction speed 1.3 X
Track quality 100.0 %
Test CRC B651171E
Copy CRC B651171E
Accurately ripped (confidence 2) [96251947] (AR v2)
Copy OK
Track 7
Filename K:\EAC\07 - See You In September.wav
Pre-gap length 0:00:03.00
Peak level 99.1 %
Extraction speed 1.3 X
Track quality 100.0 %
Test CRC CD9DF7B6
Copy CRC CD9DF7B6
Accurately ripped (confidence 2) [B85D804F] (AR v2)
Copy OK
Track 8
Filename K:\EAC\08 - Noite Dos Mascarados.wav
Pre-gap length 0:00:02.00
Peak level 97.6 %
Extraction speed 1.4 X
Track quality 100.0 %
Test CRC 8516220E
Copy CRC 8516220E
Accurately ripped (confidence 2) [4DCD05FE] (AR v2)
Copy OK
Track 9
Filename K:\EAC\09 - Watermellon Man.wav
Pre-gap length 0:00:02.00
Peak level 100.0 %
Extraction speed 1.3 X
Track quality 100.0 %
Test CRC C736987E
Copy CRC C736987E
Accurately ripped (confidence 2) [CB78EE32] (AR v2)
Copy OK
Track 10
Filename K:\EAC\10 - Winchester Cathedral.wav
Pre-gap length 0:00:02.00
Peak level 99.6 %
Extraction speed 1.5 X
Track quality 100.0 %
Test CRC 6E3A0ACD
Copy CRC 6E3A0ACD
Accurately ripped (confidence 2) [7BF3FA8B] (AR v2)
Copy OK
Track 11
Filename K:\EAC\11 - Canto Ou Fuga.wav
Pre-gap length 0:00:02.00
Peak level 96.4 %
Extraction speed 1.3 X
Track quality 99.9 %
Test CRC 607FCF51
Copy CRC 607FCF51
Accurately ripped (confidence 2) [58A8B6CC] (AR v2)
Copy OK
Track 12
Filename K:\EAC\12 - Sonho De Lugar.wav
Pre-gap length 0:00:02.00
Peak level 96.1 %
Extraction speed 1.1 X
Track quality 99.9 %
Test CRC F9F1D5C9
Copy CRC F9F1D5C9
Accurately ripped (confidence 2) [79EAE3B5] (AR v2)
Copy OK
Track 13
Filename K:\EAC\13 - Caminhada.wav
Pre-gap length 0:00:03.38
Peak level 98.5 %
Extraction speed 1.6 X
Track quality 100.0 %
Test CRC D0D813A8
Copy CRC D0D813A8
Accurately ripped (confidence 2) [6BB4E41E] (AR v2)
Copy OK
Track 14
Filename K:\EAC\14 - Retirante.wav
Pre-gap length 0:00:02.00
Peak level 87.8 %
Extraction speed 1.8 X
Track quality 100.0 %
Test CRC BEF0EE0D
Copy CRC BEF0EE0D
Accurately ripped (confidence 2) [03A4E5B7] (AR v2)
Copy OK
All tracks accurately ripped
No errors occurred
End of status report
==== Log checksum 0AC60BC1B8DD6BC1D5215C5521C13CF786ABAB08087D57B0D7CE86D3C241CEF8 ====
 
Содержание индексной карты (.CUE)
REM GENRE Jazz
REM DATE 1967
REM DISCID BB08E40E
REM COMMENT "ExactAudioCopy v1.0b3"
PERFORMER "Conjunto 3D"
TITLE "Muito na Onda"
FILE "01 - When the Saints Go Marching In.wav" WAVE
TRACK 01 AUDIO
TITLE "When the Saints Go Marching In"
PERFORMER "Conjunto 3D"
INDEX 01 00:00:00
TRACK 02 AUDIO
TITLE "Un Homme et Une Femme"
PERFORMER "Conjunto 3D"
INDEX 00 02:45:25
FILE "02 - Un Homme et Une Femme.wav" WAVE
INDEX 01 00:00:00
TRACK 03 AUDIO
TITLE "E Preciso Cantar"
PERFORMER "Conjunto 3D"
INDEX 00 02:40:62
FILE "03 - E Preciso Cantar.wav" WAVE
INDEX 01 00:00:00
TRACK 04 AUDIO
TITLE "Patruira Samba"
PERFORMER "Conjunto 3D"
INDEX 00 02:59:00
FILE "04 - Patruira Samba.wav" WAVE
INDEX 01 00:00:00
TRACK 05 AUDIO
TITLE "Roda"
PERFORMER "Conjunto 3D"
INDEX 00 02:17:38
FILE "05 - Roda.wav" WAVE
INDEX 01 00:00:00
TRACK 06 AUDIO
TITLE "I've Got You Under My Skin/Night and Day"
PERFORMER "Conjunto 3D"
INDEX 00 02:36:37
FILE "06 - I've Got You Under My Skin,Night and Day.wav" WAVE
INDEX 01 00:00:00
TRACK 07 AUDIO
TITLE "See You in September"
PERFORMER "Conjunto 3D"
INDEX 00 03:02:13
FILE "07 - See You in September.wav" WAVE
INDEX 01 00:00:00
TRACK 08 AUDIO
TITLE "Noite dos Mascarados"
PERFORMER "Conjunto 3D"
INDEX 00 02:27:37
FILE "08 - Noite dos Mascarados.wav" WAVE
INDEX 01 00:00:00
TRACK 09 AUDIO
TITLE "Watermellon Man"
PERFORMER "Conjunto 3D"
INDEX 00 02:20:63
FILE "09 - Watermellon Man.wav" WAVE
INDEX 01 00:00:00
TRACK 10 AUDIO
TITLE "Winchester Cathedral"
PERFORMER "Conjunto 3D"
INDEX 00 02:13:25
FILE "10 - Winchester Cathedral.wav" WAVE
INDEX 01 00:00:00
TRACK 11 AUDIO
TITLE "Canto ou Fuga"
PERFORMER "Conjunto 3D"
INDEX 00 02:33:62
FILE "11 - Canto ou Fuga.wav" WAVE
INDEX 01 00:00:00
TRACK 12 AUDIO
TITLE "Sonho de Lugar"
PERFORMER "Conjunto 3D"
INDEX 00 02:48:25
FILE "12 - Sonho de Lugar.wav" WAVE
INDEX 01 00:00:00
TRACK 13 AUDIO
TITLE "Caminhada"
PERFORMER "Conjunto 3D"
INDEX 00 01:53:25
FILE "13 - Caminhada.wav" WAVE
INDEX 01 00:00:00
TRACK 14 AUDIO
TITLE "Retirante"
PERFORMER "Conjunto 3D"
INDEX 00 02:43:62
FILE "14 - Retirante.wav" WAVE
INDEX 01 00:00:00
 
Отчет CUETools
[CUETools log; Date: 22.10.2016 16:22:32; Version: 2.1.5]
[CTDB TOCID: CckjBLIMNm9FbCL6xZLyF4qk5jw-] found.
Track | CTDB Status
1 | (2/2) Accurately ripped
2 | (2/2) Accurately ripped
3 | (2/2) Accurately ripped
4 | (2/2) Accurately ripped
5 | (2/2) Accurately ripped
6 | (2/2) Accurately ripped
7 | (2/2) Accurately ripped
8 | (2/2) Accurately ripped
9 | (2/2) Accurately ripped
10 | (2/2) Accurately ripped
11 | (2/2) Accurately ripped
12 | (2/2) Accurately ripped
13 | (2/2) Accurately ripped
14 | (2/2) Accurately ripped
[AccurateRip ID: 00133ddd-00cc54b3-bb08e40e] found.
Track [ CRC | V2 ] Status
01 [ae687d1d|48357c16] (0+2/2) Accurately ripped
02 [577df589|bca13af7] (0+2/2) Accurately ripped
03 [fa074c96|77e80d3b] (0+2/2) Accurately ripped
04 [27ee262e|41b65f6f] (0+2/2) Accurately ripped
05 [5bdf8f9e|4c4b5208] (0+2/2) Accurately ripped
06 [e77cbf48|96251947] (0+2/2) Accurately ripped
07 [f1f2908d|b85d804f] (0+2/2) Accurately ripped
08 [2aea4c86|4dcd05fe] (0+2/2) Accurately ripped
09 [eb3f598c|cb78ee32] (0+2/2) Accurately ripped
10 [c09cbe78|7bf3fa8b] (0+2/2) Accurately ripped
11 [f496fe8d|58a8b6cc] (0+2/2) Accurately ripped
12 [b23cd83c|79eae3b5] (0+2/2) Accurately ripped
13 [7903eedd|6bb4e41e] (0+2/2) Accurately ripped
14 [0262e15f|03a4e5b7] (0+2/2) Accurately ripped
Track Peak [ CRC32 ] [W/O NULL] [ LOG ]
-- 100,0 [EAAFB05F] [7B0797D0]
01 99,5 [CFA44D9F] [58E5EF6A] CRC32
02 86,5 [60CA69E4] [B92D8220] CRC32
03 94,3 [5A9522AF] [EB6F1DDF] CRC32
04 89,5 [471FF69D] [8DB7819F] CRC32
05 99,8 [C1626EEE] [46C11763] CRC32
06 96,7 [B651171E] [14B07255] CRC32
07 99,1 [CD9DF7B6] [20C4A118] CRC32
08 97,6 [8516220E] [9B63D146] CRC32
09 100,0 [C736987E] [76338922] CRC32
10 99,6 [6E3A0ACD] [718C49A2] CRC32
11 96,4 [607FCF51] [91186017] CRC32
12 96,1 [F9F1D5C9] [D1FE3DD6] CRC32
13 98,5 [D0D813A8] [4D9B86A0] CRC32
14 87,8 [BEF0EE0D] [25F19AB7] CRC32
 
Об альбоме (сборнике)
...something cool, breezy, light, positive, inspired and played by top-notch musicians. This is Conjunto 3-D – Muito na Onda (1967), for Continental. Everything kind words said before applies to this record that has a mix of Bossa Nova songs with some international standards. Personnel is also great, guess who is that thin and beautiful girl on the table? She is Beth Carvalho, today a renowned Samba composer and interpreter. Helio Delmiro is also on guitar, an amazing Brazilian guitarist.
22:14
269
Нет комментариев. Ваш будет первым!