Поиск

(Bossa Nova, MPB) [CD] Os 3 Morais - Os 3 Morais - 1971 (2015 Japan Edition), FLAC (tracks+.cue), lossless

(Bossa Nova, MPB) [CD] Os 3 Morais - Os 3 Morais - 1971 (2015 Japan Edition), FLAC (tracks+.cue), lossless
Треклист:
Os 3 Morais - Os 3 Morais
Жанр: Bossa Nova, MPB
Носитель: CD
Страна-производитель диска (релиза): Япония
Год издания: 1971 (2015)
Издатель (лейбл): Universal Music
Номер по каталогу: UICY-77264
Страна исполнителя (группы): Бразилия
Аудиокодек: FLAC (*.flac)
Тип рипа: tracks+.cue
Битрейт аудио: lossless
Продолжительность: 33:12
Источник (релизер): ukasoy (what)
Наличие сканов в содержимом раздачи: нет
Треклист:
01. Se Quiser Valer (2:21)
02. Odeon (3:07)
03. Tao Preso Pelo Teu Olhar (2:55)
04. Sambachiana (2:10)
05. Desafinado (3:42)
06. Freio Aerodinamico (2:39)
07. Azul da Cor do Mar (3:17)
08. Tico Tico no Fuba (2:22)
09. Violao Vadio (3:44)
10. Bachianinha No.2 (2:03)
11. Historia de Uma Crianca (2:34)
12. Jequi-Bach (2:18)
 
Лог создания рипа
Exact Audio Copy V1.0 beta 3 from 29. August 2011
EAC extraction logfile from 30. June 2016, 19:46
Os 3 Morais / Os 3 Morais
Used drive : HL-DT-STDVDRAM GH24NS50 Adapter: 5 ID: 0
Read mode : Secure
Utilize accurate stream : Yes
Defeat audio cache : Yes
Make use of C2 pointers : No
Read offset correction : 667
Overread into Lead-In and Lead-Out : No
Fill up missing offset samples with silence : Yes
Delete leading and trailing silent blocks : No
Null samples used in CRC calculations : Yes
Used interface : Native Win32 interface for Win NT & 2000
Gap handling : Appended to previous track
Used output format : User Defined Encoder
Selected bitrate : 1024 kBit/s
Quality : High
Add ID3 tag : No
Command line compressor : C:\Program Files (x86)\Exact Audio Copy\FLAC\FLAC.EXE
Additional command line options : -8 -V -T "ARTIST=%artist%" -T "TITLE=%title%" -T "ALBUM=%albumtitle%" -T "DATE=%year%" -T "TRACKNUMBER=%tracknr%" -T "GENRE=%genre%" -T "PERFORMER=%albuminterpret%" -T "COMPOSER=%composer%" %haslyrics%--tag-from-file=LYRICS="%lyricsfile%"%haslyrics% -T "ALBUMARTIST=%albumartist%" -T "DISCNUMBER=%cdnumber%" -T "TOTALDISCS=%totalcds%" -T "TOTALTRACKS=%numtracks%" -T "COMMENT=%comment%" %source% -o %dest%
TOC of the extracted CD
Track | Start | Length | Start sector | End sector
---------------------------------------------------------
1 | 0:00.00 | 2:21.04 | 0 | 10578
2 | 2:21.04 | 3:06.65 | 10579 | 24593
3 | 5:27.69 | 2:55.22 | 24594 | 37740
4 | 8:23.16 | 2:10.05 | 37741 | 47495
5 | 10:33.21 | 3:41.43 | 47496 | 64113
6 | 14:14.64 | 2:39.00 | 64114 | 76038
7 | 16:53.64 | 3:16.70 | 76039 | 90808
8 | 20:10.59 | 2:21.40 | 90809 | 101423
9 | 22:32.24 | 3:43.57 | 101424 | 118205
10 | 26:16.06 | 2:02.63 | 118206 | 127418
11 | 28:18.69 | 2:34.30 | 127419 | 138998
12 | 30:53.24 | 2:18.17 | 138999 | 149365
Track 1
Filename K:\EAC\01 - Se Quiser Valer.wav
Pre-gap length 0:00:02.00
Peak level 100.0 %
Extraction speed 0.8 X
Track quality 99.9 %
Test CRC 2D27AEAA
Copy CRC 2D27AEAA
Cannot be verified as accurate (confidence 1) [1AD19513], AccurateRip returned [41EB320D] (AR v2)
Copy OK
Track 2
Filename K:\EAC\02 - Odeon.wav
Pre-gap length 0:00:01.43
Peak level 99.6 %
Extraction speed 1.0 X
Track quality 99.9 %
Test CRC 1037FE75
Copy CRC 1037FE75
Cannot be verified as accurate (confidence 1) [DB7A5E5C], AccurateRip returned [4A2CBC48] (AR v2)
Copy OK
Track 3
Filename K:\EAC\03 - Tao Preso Pelo Teu Olhar.wav
Peak level 98.8 %
Extraction speed 1.1 X
Track quality 99.9 %
Test CRC 5E22353B
Copy CRC 5E22353B
Cannot be verified as accurate (confidence 1) [F7232FA6], AccurateRip returned [C87809D3] (AR v2)
Copy OK
Track 4
Filename K:\EAC\04 - Sambachiana.wav
Peak level 98.8 %
Extraction speed 1.2 X
Track quality 100.0 %
Test CRC 3B849CB8
Copy CRC 3B849CB8
Cannot be verified as accurate (confidence 1) [B028146F], AccurateRip returned [9D2C9039] (AR v2)
Copy OK
Track 5
Filename K:\EAC\05 - Desafinado.wav
Peak level 98.9 %
Extraction speed 1.5 X
Track quality 100.0 %
Test CRC B2903CB7
Copy CRC B2903CB7
Cannot be verified as accurate (confidence 1) [F5569403], AccurateRip returned [87885DDB] (AR v2)
Copy OK
Track 6
Filename K:\EAC\06 - Freio Aerodinamico.wav
Peak level 99.8 %
Extraction speed 1.2 X
Track quality 99.9 %
Test CRC B222CCFF
Copy CRC B222CCFF
Cannot be verified as accurate (confidence 1) [156405E6], AccurateRip returned [81268E8A] (AR v2)
Copy OK
Track 7
Filename K:\EAC\07 - Azul Da Cor Do Mar.wav
Peak level 97.8 %
Extraction speed 1.7 X
Track quality 100.0 %
Test CRC E2D1E3A9
Copy CRC E2D1E3A9
Cannot be verified as accurate (confidence 1) [2F2B51ED], AccurateRip returned [2A177D99] (AR v2)
Copy OK
Track 8
Filename K:\EAC\08 - Tico Tico No Fuba.wav
Peak level 98.1 %
Extraction speed 1.6 X
Track quality 100.0 %
Test CRC 404A36F2
Copy CRC 404A36F2
Cannot be verified as accurate (confidence 1) [5EE23BB9], AccurateRip returned [F6FCCB80] (AR v2)
Copy OK
Track 9
Filename K:\EAC\09 - Violao Vadio.wav
Peak level 97.3 %
Extraction speed 1.6 X
Track quality 99.9 %
Test CRC 49679E4F
Copy CRC 49679E4F
Cannot be verified as accurate (confidence 1) [3D64211C], AccurateRip returned [1A592663] (AR v2)
Copy OK
Track 10
Filename K:\EAC\10 - Bachianinha No. 2.wav
Peak level 97.6 %
Extraction speed 1.3 X
Track quality 99.9 %
Test CRC C54BDDAF
Copy CRC C54BDDAF
Cannot be verified as accurate (confidence 1) [FE464D7A], AccurateRip returned [83732AAA] (AR v2)
Copy OK
Track 11
Filename K:\EAC\11 - Historia De Uma Crianca.wav
Peak level 98.6 %
Extraction speed 1.8 X
Track quality 100.0 %
Test CRC 9723899B
Copy CRC 9723899B
Cannot be verified as accurate (confidence 1) [05D2DBE3], AccurateRip returned [83451736] (AR v2)
Copy OK
Track 12
Filename K:\EAC\12 - Jequi-Bach.wav
Peak level 98.0 %
Extraction speed 1.9 X
Track quality 100.0 %
Test CRC 5F3C5782
Copy CRC 5F3C5782
Cannot be verified as accurate (confidence 1) [259B5A2D], AccurateRip returned [F8747140] (AR v2)
Copy OK
No tracks could be verified as accurate
You may have a different pressing from the one(s) in the database
No errors occurred
End of status report
==== Log checksum 7A87DC651489054C81DB777377933010EC5DFAEA6A322A0A9246123AB3158CC6 ====
 
Содержание индексной карты (.CUE)
REM GENRE Jazz
REM DATE 1971
REM DISCID 8D07C70C
REM COMMENT "ExactAudioCopy v1.0b3"
PERFORMER "Os 3 Morais"
TITLE "Os 3 Morais"
FILE "01 - Se Quiser Valer.wav" WAVE
TRACK 01 AUDIO
TITLE "Se Quiser Valer"
PERFORMER "Os 3 Morais"
INDEX 01 00:00:00
TRACK 02 AUDIO
TITLE "Odeon"
PERFORMER "Os 3 Morais"
INDEX 00 02:19:36
FILE "02 - Odeon.wav" WAVE
INDEX 01 00:00:00
FILE "03 - Tao Preso Pelo Teu Olhar.wav" WAVE
TRACK 03 AUDIO
TITLE "Tao Preso Pelo Teu Olhar"
PERFORMER "Os 3 Morais"
INDEX 01 00:00:00
FILE "04 - Sambachiana.wav" WAVE
TRACK 04 AUDIO
TITLE "Sambachiana"
PERFORMER "Os 3 Morais"
INDEX 01 00:00:00
FILE "05 - Desafinado.wav" WAVE
TRACK 05 AUDIO
TITLE "Desafinado"
PERFORMER "Os 3 Morais"
INDEX 01 00:00:00
FILE "06 - Freio Aerodinamico.wav" WAVE
TRACK 06 AUDIO
TITLE "Freio Aerodinamico"
PERFORMER "Os 3 Morais"
INDEX 01 00:00:00
FILE "07 - Azul da Cor do Mar.wav" WAVE
TRACK 07 AUDIO
TITLE "Azul da Cor do Mar"
PERFORMER "Os 3 Morais"
INDEX 01 00:00:00
FILE "08 - Tico Tico no Fuba.wav" WAVE
TRACK 08 AUDIO
TITLE "Tico Tico no Fuba"
PERFORMER "Os 3 Morais"
INDEX 01 00:00:00
FILE "09 - Violao Vadio.wav" WAVE
TRACK 09 AUDIO
TITLE "Violao Vadio"
PERFORMER "Os 3 Morais"
INDEX 01 00:00:00
FILE "10 - Bachianinha No.2.wav" WAVE
TRACK 10 AUDIO
TITLE "Bachianinha No.2"
PERFORMER "Os 3 Morais"
INDEX 01 00:00:00
FILE "11 - Historia de Uma Crianca.wav" WAVE
TRACK 11 AUDIO
TITLE "Historia de Uma Crianca"
PERFORMER "Os 3 Morais"
INDEX 01 00:00:00
FILE "12 - Jequi-Bach.wav" WAVE
TRACK 12 AUDIO
TITLE "Jequi-Bach"
PERFORMER "Os 3 Morais"
INDEX 01 00:00:00
 
Отчет CUETools
[CUETools log; Date: 22.10.2016 16:50:10; Version: 2.1.5]
[CTDB TOCID: TmxfwuuDQOMXMywUwEJWTE1Ezbg-] found.
Track | CTDB Status
1 | (5/5) Accurately ripped
2 | (5/5) Accurately ripped
3 | (5/5) Accurately ripped
4 | (5/5) Accurately ripped
5 | (5/5) Accurately ripped
6 | (5/5) Accurately ripped
7 | (5/5) Accurately ripped
8 | (5/5) Accurately ripped
9 | (5/5) Accurately ripped
10 | (5/5) Accurately ripped
11 | (5/5) Accurately ripped
12 | (5/5) Accurately ripped
[AccurateRip ID: 000f0ea2-008ce295-8d07c70c] found.
Track [ CRC | V2 ] Status
01 [e47b0baf|1ad19513] (0+0/1) No match
02 [ddb320c5|db7a5e5c] (0+0/1) No match
03 [c81fd9ef|f7232fa6] (0+0/1) No match
04 [ec9c733d|b028146f] (0+0/1) No match
05 [339f047a|f5569403] (0+0/1) No match
06 [57294898|156405e6] (0+0/1) No match
07 [fe73d693|2f2b51ed] (0+0/1) No match
08 [f0f9fe28|5ee23bb9] (0+0/1) No match
09 [6d5bf31e|3d64211c] (0+0/1) No match
10 [178f3461|fe464d7a] (0+0/1) No match
11 [1b7e04d1|05d2dbe3] (0+0/1) No match
12 [d7c0aab0|259b5a2d] (0+0/1) No match
Offsetted by 18:
01 [0ef4ce2b] (0/1) No match (V2 was not tested)
02 [50cab611] (0/1) No match (V2 was not tested)
03 [9d82dc4f] (0/1) No match (V2 was not tested)
04 [dca55dfd] (0/1) No match (V2 was not tested)
05 [cb22e4c0] (0/1) No match (V2 was not tested)
06 [c6b9e508] (0/1) No match (V2 was not tested)
07 [fdf5a5fb] (0/1) No match (V2 was not tested)
08 [8c64f078] (0/1) No match (V2 was not tested)
09 [4f90057a] (0/1) No match (V2 was not tested)
10 [9f94c8cb] (0/1) No match (V2 was not tested)
11 [9c8468b5] (0/1) No match (V2 was not tested)
12 [adcee58e] (0/1) No match (V2 was not tested)
Track Peak [ CRC32 ] [W/O NULL] [ LOG ]
-- 100,0 [2F33CA11] [6F3ABFF6]
01 100,0 [2D27AEAA] [668AC4AE] CRC32
02 99,6 [1037FE75] [CFD49A53] CRC32
03 98,8 [5E22353B] [B61E4141] CRC32
04 98,8 [3B849CB8] [EF8B4185] CRC32
05 98,9 [B2903CB7] [56295D71] CRC32
06 99,8 [B222CCFF] [F728FB54] CRC32
07 97,8 [E2D1E3A9] [4BB0D001] CRC32
08 98,1 [404A36F2] [888747F5] CRC32
09 97,3 [49679E4F] [862C778F] CRC32
10 97,6 [C54BDDAF] [8F0C7F91] CRC32
11 98,6 [9723899B] [999FC22B] CRC32
12 98,0 [5F3C5782] [43F65B37] CRC32
22:15
266
Нет комментариев. Ваш будет первым!