Поиск

(Bossa Nova, MPB) [CD] Tuca - Tuca - 1968 (2015 Japan Edition), FLAC (tracks+.cue), lossless

(Bossa Nova, MPB) [CD] Tuca - Tuca - 1968 (2015 Japan Edition), FLAC (tracks+.cue), lossless
Треклист:
Tuca - Tuca
Жанр: Bossa Nova, MPB
Носитель: CD
Страна-производитель диска (релиза): Япония
Год издания: 1968 (2015)
Издатель (лейбл): Universal Music
Номер по каталогу: UICY-77285
Страна исполнителя (группы): Бразилия
Аудиокодек: FLAC (*.flac)
Тип рипа: tracks+.cue
Битрейт аудио: lossless
Продолжительность: 29:06
Источник (релизер): ukasoy (what)
Наличие сканов в содержимом раздачи: нет
Треклист:
01. Atire a Primeira Pedra (Alves-Lago) - 3:11
02. Cuidado, Malandro (Velha-De Freitas) - 1:49
03. O Cavaleiro e a Virgem (Tuca) - 3:21
04. Frevo (Tuca) - 1:42
05. Seresta (De Carvalho-Quartin) - 3:51
06. Nao Fale Alto, Fale Baixo (Halfoum) - 1:33
07. Verde (Duncan-M. De Castro) - 2:00
08. O Cavaleiro Das Maos Tao Frias (Tuca-C. De Castro) - 2:10
09. Curare (Bororo) - 3:13
10. Passarinho da Lagoa (Lobo-Ruy) - 1:43
11. Ate Quarta-Feira (Silva-Satte)/Carnaval pra Valer (Gustavo) - 2:34
12. Abstrato No.1 (Tuca-Zeka) - 1:59
Arranged by Guerra Peixe (#1,4-6,9,11,12), Oscar Castro Neves (#2,3,8,10) and Mario de Castro (#7).
 
Лог создания рипа
Exact Audio Copy V1.0 beta 3 from 29. August 2011
EAC extraction logfile from 23. September 2016, 19:43
Tuca / Tuca
Used drive : HL-DT-STDVDRAM GH24NS50 Adapter: 5 ID: 0
Read mode : Secure
Utilize accurate stream : Yes
Defeat audio cache : Yes
Make use of C2 pointers : No
Read offset correction : 667
Overread into Lead-In and Lead-Out : No
Fill up missing offset samples with silence : Yes
Delete leading and trailing silent blocks : No
Null samples used in CRC calculations : Yes
Used interface : Native Win32 interface for Win NT & 2000
Gap handling : Appended to previous track
Used output format : User Defined Encoder
Selected bitrate : 1024 kBit/s
Quality : High
Add ID3 tag : No
Command line compressor : C:\Program Files (x86)\Exact Audio Copy\FLAC\FLAC.EXE
Additional command line options : -8 -V -T "ARTIST=%artist%" -T "TITLE=%title%" -T "ALBUM=%albumtitle%" -T "DATE=%year%" -T "TRACKNUMBER=%tracknr%" -T "GENRE=%genre%" -T "PERFORMER=%albuminterpret%" -T "COMPOSER=%composer%" %haslyrics%--tag-from-file=LYRICS="%lyricsfile%"%haslyrics% -T "ALBUMARTIST=%albumartist%" -T "DISCNUMBER=%cdnumber%" -T "TOTALDISCS=%totalcds%" -T "TOTALTRACKS=%numtracks%" -T "COMMENT=%comment%" %source% -o %dest%
TOC of the extracted CD
Track | Start | Length | Start sector | End sector
---------------------------------------------------------
1 | 0:00.00 | 3:10.54 | 0 | 14303
2 | 3:10.54 | 1:48.41 | 14304 | 22444
3 | 4:59.20 | 3:21.07 | 22445 | 37526
4 | 8:20.27 | 1:41.42 | 37527 | 45143
5 | 10:01.69 | 3:51.34 | 45144 | 62502
6 | 13:53.28 | 1:32.74 | 62503 | 69476
7 | 15:26.27 | 2:00.10 | 69477 | 78486
8 | 17:26.37 | 2:10.31 | 78487 | 88267
9 | 19:36.68 | 3:12.53 | 88268 | 102720
10 | 22:49.46 | 1:42.44 | 102721 | 110414
11 | 24:32.15 | 2:34.37 | 110415 | 122001
12 | 27:06.52 | 1:59.18 | 122002 | 130944
Track 1
Filename K:\EAC\01 - Atire A Primeira Pedra.wav
Pre-gap length 0:00:02.00
Peak level 100.0 %
Extraction speed 1.0 X
Track quality 100.0 %
Test CRC 30345C1A
Copy CRC 30345C1A
Track not present in AccurateRip database
Copy OK
Track 2
Filename K:\EAC\02 - Cuidado, Malandro.wav
Peak level 100.0 %
Extraction speed 0.7 X
Track quality 99.9 %
Test CRC 599387AE
Copy CRC 599387AE
Track not present in AccurateRip database
Copy OK
Track 3
Filename K:\EAC\03 - O Cavaleiro E A Virgem.wav
Peak level 100.0 %
Extraction speed 1.1 X
Track quality 100.0 %
Test CRC 4F79E838
Copy CRC 4F79E838
Track not present in AccurateRip database
Copy OK
Track 4
Filename K:\EAC\04 - Frevo.wav
Peak level 100.0 %
Extraction speed 0.8 X
Track quality 99.8 %
Test CRC 83D97BDB
Copy CRC 83D97BDB
Track not present in AccurateRip database
Copy OK
Track 5
Filename K:\EAC\05 - Seresta.wav
Peak level 99.8 %
Extraction speed 1.3 X
Track quality 100.0 %
Test CRC ECB90261
Copy CRC ECB90261
Track not present in AccurateRip database
Copy OK
Track 6
Filename K:\EAC\06 - Não Fale Alto, Fale Baixo.wav
Peak level 100.0 %
Extraction speed 1.1 X
Track quality 100.0 %
Test CRC A4D0ABB3
Copy CRC A4D0ABB3
Track not present in AccurateRip database
Copy OK
Track 7
Filename K:\EAC\07 - Verde.wav
Peak level 77.5 %
Extraction speed 0.9 X
Track quality 99.9 %
Test CRC DDAFBD51
Copy CRC DDAFBD51
Track not present in AccurateRip database
Copy OK
Track 8
Filename K:\EAC\08 - O Cavaleiro Das Mãos Tão Frias.wav
Peak level 100.0 %
Extraction speed 1.2 X
Track quality 100.0 %
Test CRC 5DE74733
Copy CRC 5DE74733
Track not present in AccurateRip database
Copy OK
Track 9
Filename K:\EAC\09 - Curare.wav
Peak level 100.0 %
Extraction speed 1.5 X
Track quality 100.0 %
Test CRC 25408CCC
Copy CRC 25408CCC
Track not present in AccurateRip database
Copy OK
Track 10
Filename K:\EAC\10 - Passarinho Da Lagôa.wav
Peak level 100.0 %
Extraction speed 1.0 X
Track quality 99.8 %
Test CRC 7E0ED779
Copy CRC 7E0ED779
Track not present in AccurateRip database
Copy OK
Track 11
Filename K:\EAC\11 - Até Quarta-Feira - Carnaval Pra Valer.wav
Peak level 100.0 %
Extraction speed 1.5 X
Track quality 100.0 %
Test CRC CB11A4E1
Copy CRC CB11A4E1
Track not present in AccurateRip database
Copy OK
Track 12
Filename K:\EAC\12 - Abstrato No. 1 (Descriação De Um Quadro Da Bienal).wav
Peak level 100.0 %
Extraction speed 1.2 X
Track quality 99.9 %
Test CRC 48E8374F
Copy CRC 48E8374F
Track not present in AccurateRip database
Copy OK
None of the tracks are present in the AccurateRip database
No errors occurred
End of status report
==== Log checksum 78C95B54008F6C4B51DF6AC13C46B51461F92FA4C5DA8B62CA3F569D1F40A3F6 ====
 
Содержание индексной карты (.CUE)
REM GENRE Jazz
REM DATE 1968
REM DISCID 9006D10C
REM COMMENT "ExactAudioCopy v1.0b3"
PERFORMER "Tuca"
TITLE "Tuca"
FILE "01 - Atire a Primeira Pedra.wav" WAVE
TRACK 01 AUDIO
TITLE "Atire a Primeira Pedra"
PERFORMER "Tuca"
INDEX 01 00:00:00
FILE "02 - Cuidado, Malandro.wav" WAVE
TRACK 02 AUDIO
TITLE "Cuidado, Malandro"
PERFORMER "Tuca"
INDEX 01 00:00:00
FILE "03 - O Cavaleiro e a Virgem.wav" WAVE
TRACK 03 AUDIO
TITLE "O Cavaleiro e a Virgem"
PERFORMER "Tuca"
INDEX 01 00:00:00
FILE "04 - Frevo.wav" WAVE
TRACK 04 AUDIO
TITLE "Frevo"
PERFORMER "Tuca"
INDEX 01 00:00:00
FILE "05 - Seresta.wav" WAVE
TRACK 05 AUDIO
TITLE "Seresta"
PERFORMER "Tuca"
INDEX 01 00:00:00
FILE "06 - Nao Fale Alto, Fale Baixo.wav" WAVE
TRACK 06 AUDIO
TITLE "Nao Fale Alto, Fale Baixo"
PERFORMER "Tuca"
INDEX 01 00:00:00
FILE "07 - Verde.wav" WAVE
TRACK 07 AUDIO
TITLE "Verde"
PERFORMER "Tuca"
INDEX 01 00:00:00
FILE "08 - O Cavaleiro Das Maos Tao Frias.wav" WAVE
TRACK 08 AUDIO
TITLE "O Cavaleiro Das Maos Tao Frias"
PERFORMER "Tuca"
INDEX 01 00:00:00
FILE "09 - Curare.wav" WAVE
TRACK 09 AUDIO
TITLE "Curare"
PERFORMER "Tuca"
INDEX 01 00:00:00
FILE "10 - Passarinho da Lagoa.wav" WAVE
TRACK 10 AUDIO
TITLE "Passarinho da Lagoa"
PERFORMER "Tuca"
INDEX 01 00:00:00
FILE "11 - Ate Quarta-Feira,Carnaval pra Valer.wav" WAVE
TRACK 11 AUDIO
TITLE "Ate Quarta-Feira/Carnaval pra Valer"
PERFORMER "Tuca"
INDEX 01 00:00:00
FILE "12 - Abstrato No.1.wav" WAVE
TRACK 12 AUDIO
TITLE "Abstrato No.1"
PERFORMER "Tuca"
INDEX 01 00:00:00
 
Отчет CUETools
[CUETools log; Date: 22.10.2016 15:48:35; Version: 2.1.5]
[CTDB TOCID: x87NZ1F78yVZHCY.Ee4P6eWudRQ-] found.
Track | CTDB Status
1 | (4/4) Accurately ripped
2 | (4/4) Accurately ripped
3 | (4/4) Accurately ripped
4 | (4/4) Accurately ripped
5 | (4/4) Accurately ripped
6 | (4/4) Accurately ripped
7 | (4/4) Accurately ripped
8 | (4/4) Accurately ripped
9 | (4/4) Accurately ripped
10 | (4/4) Accurately ripped
11 | (4/4) Accurately ripped
12 | (4/4) Accurately ripped
[AccurateRip ID: 000d7e0e-007c90c1-9006d10c] disk not present in database.
Track Peak [ CRC32 ] [W/O NULL] [ LOG ]
-- 100,0 [2EF19A10] [D33A966F]
01 100,0 [30345C1A] [86097D9D] CRC32
02 100,0 [599387AE] [87509066] CRC32
03 100,0 [4F79E838] [20C4A8BE] CRC32
04 100,0 [83D97BDB] [8DA68552] CRC32
05 99,8 [ECB90261] [C4F85905] CRC32
06 100,0 [A4D0ABB3] [ABD40A40] CRC32
07 77,5 [DDAFBD51] [61E103EB] CRC32
08 100,0 [5DE74733] [8E13FBAB] CRC32
09 100,0 [25408CCC] [B45C8E47] CRC32
10 100,0 [7E0ED779] [24C8EDE9] CRC32
11 100,0 [CB11A4E1] [042016C0] CRC32
12 100,0 [48E8374F] [EF497F62] CRC32
 
Об альбоме (сборнике)
This is the debut LP of an almost unknown Brazilian singer from the late 60’s to 70’s, Also a composer, Tuca’s first relevant appearence on Brazilian media was with Airto Moreira in 1966 at the Festival Nacional de Musica Popular – TV excelsior, they won the first price with the song Porta Estandarte.
At this same year, Tuca released this first LP – Tuca – Eu, Tuca (1968), with some of her compositions. Tuca left Brazil for a six-year hiatus in Paris, returnig in 1975 to release her second and last LP. Tuca passed very young at the age of 34 with a stroke in 1977.
22:13
293
Нет комментариев. Ваш будет первым!