Поиск

(Samba, Bossa Nova, MPB) [CD] Os Gatos - Os Gatos - 1964 (2014 Japan Edition), FLAC (tracks+.cue), lossless

(Samba, Bossa Nova, MPB) [CD] Os Gatos - Os Gatos - 1964 (2014 Japan Edition), FLAC (tracks+.cue), lossless
Треклист:
Os Gatos - Os Gatos
Жанр: Samba, Bossa Nova, MPB
Носитель: CD
Страна-производитель диска (релиза): Япония
Год издания: 1964 (2014)
Издатель (лейбл): Mercury/Universal
Номер по каталогу: UICY-3522
Страна исполнителя (группы): Бразилия
Аудиокодек: FLAC (*.flac)
Тип рипа: tracks+.cue
Битрейт аудио: lossless
Продолжительность: 33:18
Источник (релизер): ukasoy (what)
Наличие сканов в содержимом раздачи: нет
Треклист:
01. Canadian Sunset (Heywood-Gimbel) - 3:50
02. Novo Sol (Ferreira-Camargo) - 2:06
03. Razao de Viver (Deodato-Valle) - 3:34
04. Sao Salvador (Ferreira-Aglae) - 2:05
05. Tristeza de Nos Dois (Ferreira-Bebeto-Einhorn) - 3:06
06. Nuvens (Ferreira-Einhorn) - 3:38
07. Sambidu (Ferreira-Einhorn) - 2:11
08. A Chuva (Ferreira-Camargo) - 3:39
09. Verdade em Paz (Ferreira-Camargo) - 1:38
10. Estamos Ai (Ferreira-Einhorn-Werneck) - 1:58
11. Dois Peixinhos (Amor no Mar) (Ferreira-Freire) - 3:26
12. O Show e o Meu Rio (Camargo) - 2:07
Состав:
Durval Ferreira, Neco - guitar
Eumir Deodato - piano
Paulo Moura - alto saxophone
Copinha, Meirelles - flute
Edson Maciel, Antonio Norato - trombone
Mauricio Einhorn - harmonica
Maurilio Santos - trumpet, flugelhorn
Wilson das Neves - drums
 
Лог создания рипа
Exact Audio Copy V1.0 beta 3 from 29. August 2011
EAC extraction logfile from 21. October 2016, 19:39
Os Gatos / Os Gatos
Used drive : HL-DT-STDVDRAM GH24NS50 Adapter: 5 ID: 0
Read mode : Secure
Utilize accurate stream : Yes
Defeat audio cache : Yes
Make use of C2 pointers : No
Read offset correction : 667
Overread into Lead-In and Lead-Out : No
Fill up missing offset samples with silence : Yes
Delete leading and trailing silent blocks : No
Null samples used in CRC calculations : Yes
Used interface : Native Win32 interface for Win NT & 2000
Gap handling : Appended to previous track
Used output format : User Defined Encoder
Selected bitrate : 1024 kBit/s
Quality : High
Add ID3 tag : No
Command line compressor : C:\Program Files (x86)\Exact Audio Copy\FLAC\FLAC.EXE
Additional command line options : -8 -V -T "ARTIST=%artist%" -T "TITLE=%title%" -T "ALBUM=%albumtitle%" -T "DATE=%year%" -T "TRACKNUMBER=%tracknr%" -T "GENRE=%genre%" -T "PERFORMER=%albuminterpret%" -T "COMPOSER=%composer%" %haslyrics%--tag-from-file=LYRICS="%lyricsfile%"%haslyrics% -T "ALBUMARTIST=%albumartist%" -T "DISCNUMBER=%cdnumber%" -T "TOTALDISCS=%totalcds%" -T "TOTALTRACKS=%numtracks%" -T "COMMENT=%comment%" %source% -o %dest%
TOC of the extracted CD
Track | Start | Length | Start sector | End sector
---------------------------------------------------------
1 | 0:00.00 | 3:50.00 | 0 | 17249
2 | 3:50.00 | 2:06.00 | 17250 | 26699
3 | 5:56.00 | 3:34.00 | 26700 | 42749
4 | 9:30.00 | 2:04.45 | 42750 | 52094
5 | 11:34.45 | 3:05.47 | 52095 | 66016
6 | 14:40.17 | 3:38.03 | 66017 | 82369
7 | 18:18.20 | 2:11.00 | 82370 | 92194
8 | 20:29.20 | 3:38.70 | 92195 | 108614
9 | 24:08.15 | 1:38.22 | 108615 | 115986
10 | 25:46.37 | 1:57.70 | 115987 | 124831
11 | 27:44.32 | 3:25.55 | 124832 | 140261
12 | 31:10.12 | 2:07.13 | 140262 | 149799
Track 1
Filename K:\EAC\01 - Canadian Sunset.wav
Pre-gap length 0:00:02.00
Peak level 99.9 %
Extraction speed 1.1 X
Track quality 100.0 %
Test CRC F2527930
Copy CRC F2527930
Cannot be verified as accurate (confidence 1) [DB946719], AccurateRip returned [35B0FF07] (AR v2)
Copy OK
Track 2
Filename K:\EAC\02 - Novo Sol.wav
Pre-gap length 0:00:04.00
Peak level 87.2 %
Extraction speed 1.1 X
Track quality 100.0 %
Test CRC 9F996B30
Copy CRC 9F996B30
Cannot be verified as accurate (confidence 1) [226308AA], AccurateRip returned [FAEBF3B0] (AR v2)
Copy OK
Track 3
Filename K:\EAC\03 - Razão De Viver.wav
Pre-gap length 0:00:03.15
Peak level 94.4 %
Extraction speed 1.3 X
Track quality 100.0 %
Test CRC B69B152F
Copy CRC B69B152F
Cannot be verified as accurate (confidence 1) [7A52ABFC], AccurateRip returned [63310685] (AR v2)
Copy OK
Track 4
Filename K:\EAC\04 - São Salvador.wav
Pre-gap length 0:00:04.25
Peak level 94.4 %
Extraction speed 1.3 X
Track quality 100.0 %
Test CRC 7E847D69
Copy CRC 7E847D69
Cannot be verified as accurate (confidence 1) [647EC5B3], AccurateRip returned [8E0A211B] (AR v2)
Copy OK
Track 5
Filename K:\EAC\05 - Tristeza De Nos Dois.wav
Pre-gap length 0:00:03.37
Peak level 94.4 %
Extraction speed 1.4 X
Track quality 100.0 %
Test CRC 6F098E53
Copy CRC 6F098E53
Cannot be verified as accurate (confidence 1) [1AA944D4], AccurateRip returned [25B126EB] (AR v2)
Copy OK
Track 6
Filename K:\EAC\06 - Nuvens.wav
Pre-gap length 0:00:03.02
Peak level 94.4 %
Extraction speed 1.5 X
Track quality 100.0 %
Test CRC EFD2AD3D
Copy CRC EFD2AD3D
Cannot be verified as accurate (confidence 1) [A0266FE3], AccurateRip returned [89989997] (AR v2)
Copy OK
Track 7
Filename K:\EAC\07 - Sambidú.wav
Pre-gap length 0:00:02.45
Peak level 94.4 %
Extraction speed 1.4 X
Track quality 100.0 %
Test CRC 8A625E9B
Copy CRC 8A625E9B
Cannot be verified as accurate (confidence 1) [D63DACCC], AccurateRip returned [BBD7FB85] (AR v2)
Copy OK
Track 8
Filename K:\EAC\08 - A Chuva.wav
Pre-gap length 0:00:02.70
Peak level 94.4 %
Extraction speed 1.7 X
Track quality 100.0 %
Test CRC 3BBE63FD
Copy CRC 3BBE63FD
Cannot be verified as accurate (confidence 1) [18FCA6F2], AccurateRip returned [8670D856] (AR v2)
Copy OK
Track 9
Filename K:\EAC\09 - Verdade Em Paz.wav
Pre-gap length 0:00:03.65
Peak level 94.4 %
Extraction speed 1.1 X
Track quality 99.8 %
Test CRC BAE3F165
Copy CRC BAE3F165
Cannot be verified as accurate (confidence 1) [B0AB2CC9], AccurateRip returned [3414CF2C] (AR v2)
Copy OK
Track 10
Filename K:\EAC\10 - Estamos Aí.wav
Pre-gap length 0:00:04.26
Peak level 94.4 %
Extraction speed 1.6 X
Track quality 100.0 %
Test CRC 81F1D3C8
Copy CRC 81F1D3C8
Cannot be verified as accurate (confidence 1) [65759D6C], AccurateRip returned [3023F5A9] (AR v2)
Copy OK
Track 11
Filename K:\EAC\11 - Dois Peixinhos.wav
Pre-gap length 0:00:03.37
Peak level 99.9 %
Extraction speed 1.8 X
Track quality 100.0 %
Test CRC 9E88EAC3
Copy CRC 9E88EAC3
Cannot be verified as accurate (confidence 1) [30399774], AccurateRip returned [26CC202D] (AR v2)
Copy OK
Track 12
Filename K:\EAC\12 - O Show É O Meu Rio.wav
Pre-gap length 0:00:04.62
Peak level 99.9 %
Extraction speed 1.4 X
Track quality 99.9 %
Test CRC E61C7A42
Copy CRC E61C7A42
Cannot be verified as accurate (confidence 1) [83F11A79], AccurateRip returned [4707ADD0] (AR v2)
Copy OK
No tracks could be verified as accurate
You may have a different pressing from the one(s) in the database
No errors occurred
End of status report
==== Log checksum D542DF3F94F51A057F5EFEE0EE532115571EC19E59BB0163970FA077DC30B3F3 ====
 
Содержание индексной карты (.CUE)
REM GENRE Jazz
REM DATE 1964
REM DISCID 9807CD0C
REM COMMENT "ExactAudioCopy v1.0b3"
PERFORMER "Os Gatos"
TITLE "Os Gatos"
FILE "01 - Canadian Sunset.wav" WAVE
TRACK 01 AUDIO
TITLE "Canadian Sunset"
PERFORMER "Os Gatos"
INDEX 01 00:00:00
TRACK 02 AUDIO
TITLE "Novo Sol"
PERFORMER "Os Gatos"
INDEX 00 03:46:00
FILE "02 - Novo Sol.wav" WAVE
INDEX 01 00:00:00
TRACK 03 AUDIO
TITLE "Razao de Viver"
PERFORMER "Os Gatos"
INDEX 00 02:02:60
FILE "03 - Razao de Viver.wav" WAVE
INDEX 01 00:00:00
TRACK 04 AUDIO
TITLE "Sao Salvador"
PERFORMER "Os Gatos"
INDEX 00 03:29:50
FILE "04 - Sao Salvador.wav" WAVE
INDEX 01 00:00:00
TRACK 05 AUDIO
TITLE "Tristeza de Nos Dois"
PERFORMER "Os Gatos"
INDEX 00 02:01:08
FILE "05 - Tristeza de Nos Dois.wav" WAVE
INDEX 01 00:00:00
TRACK 06 AUDIO
TITLE "Nuvens"
PERFORMER "Os Gatos"
INDEX 00 03:02:45
FILE "06 - Nuvens.wav" WAVE
INDEX 01 00:00:00
TRACK 07 AUDIO
TITLE "Sambidu"
PERFORMER "Os Gatos"
INDEX 00 03:35:33
FILE "07 - Sambidu.wav" WAVE
INDEX 01 00:00:00
TRACK 08 AUDIO
TITLE "A Chuva"
PERFORMER "Os Gatos"
INDEX 00 02:08:05
FILE "08 - A Chuva.wav" WAVE
INDEX 01 00:00:00
TRACK 09 AUDIO
TITLE "Verdade em Paz"
PERFORMER "Os Gatos"
INDEX 00 03:35:05
FILE "09 - Verdade em Paz.wav" WAVE
INDEX 01 00:00:00
TRACK 10 AUDIO
TITLE "Estamos Ai"
PERFORMER "Os Gatos"
INDEX 00 01:33:71
FILE "10 - Estamos Ai.wav" WAVE
INDEX 01 00:00:00
TRACK 11 AUDIO
TITLE "Dois Peixinhos (Amor no Mar)"
PERFORMER "Os Gatos"
INDEX 00 01:54:33
FILE "11 - Dois Peixinhos (Amor no Mar).wav" WAVE
INDEX 01 00:00:00
TRACK 12 AUDIO
TITLE "O Show e o Meu Rio"
PERFORMER "Os Gatos"
INDEX 00 03:20:68
FILE "12 - O Show e o Meu Rio.wav" WAVE
INDEX 01 00:00:00
 
Отчет CUETools
[CUETools log; Date: 22.10.2016 15:13:22; Version: 2.1.5]
[CTDB TOCID: 9mr9rZKIUaiOssrapOQ_Gs7mblY-] found.
Track | CTDB Status
1 | (3/3) Accurately ripped
2 | (3/3) Accurately ripped
3 | (3/3) Accurately ripped
4 | (3/3) Accurately ripped
5 | (3/3) Accurately ripped
6 | (3/3) Accurately ripped
7 | (3/3) Accurately ripped
8 | (3/3) Accurately ripped
9 | (3/3) Accurately ripped
10 | (3/3) Accurately ripped
11 | (3/3) Accurately ripped
12 | (3/3) Accurately ripped
[AccurateRip ID: 000f8bf9-008f64b5-9807cd0c] found.
Track [ CRC | V2 ] Status
01 [ec224941|db946719] (0+0/1) No match
02 [9d4d879e|226308aa] (0+0/1) No match
03 [996826f9|7a52abfc] (0+0/1) No match
04 [df317a83|647ec5b3] (0+0/1) No match
05 [7e31b5d6|1aa944d4] (0+0/1) No match
06 [46e55074|a0266fe3] (0+0/1) No match
07 [2b4fc06b|d63daccc] (0+0/1) No match
08 [a947f862|18fca6f2] (0+0/1) No match
09 [d7376a89|b0ab2cc9] (0+0/1) No match
10 [db2b6697|65759d6c] (0+0/1) No match
11 [a00462cc|30399774] (0+0/1) No match
12 [874fff0b|83f11a79] (0+0/1) No match
Offsetted by -18:
01 [410c48c1] (0/1) No match (V2 was not tested)
02 [72ee3440] (0/1) No match (V2 was not tested)
03 [7d6417b7] (0/1) No match (V2 was not tested)
04 [05e1f845] (0/1) No match (V2 was not tested)
05 [850f8a92] (0/1) No match (V2 was not tested)
06 [2b5c0df4] (0/1) No match (V2 was not tested)
07 [0ded7c4f] (0/1) No match (V2 was not tested)
08 [1197eafe] (0/1) No match (V2 was not tested)
09 [5879c819] (0/1) No match (V2 was not tested)
10 [a3264441] (0/1) No match (V2 was not tested)
11 [91d46178] (0/1) No match (V2 was not tested)
12 [47676cfd] (0/1) No match (V2 was not tested)
Track Peak [ CRC32 ] [W/O NULL] [ LOG ]
-- 99,9 [5C9F8329] [48EE4E7E]
01 99,9 [F2527930] [96D6BE43] CRC32
02 87,2 [9F996B30] [68315699] CRC32
03 94,4 [B69B152F] [4E7B740A] CRC32
04 94,4 [7E847D69] [4687E33E] CRC32
05 94,4 [6F098E53] [CCE61336] CRC32
06 94,4 [EFD2AD3D] [7705EFF7] CRC32
07 94,4 [8A625E9B] [AAD985AF] CRC32
08 94,4 [3BBE63FD] [11B4ABAD] CRC32
09 94,4 [BAE3F165] [0D1E2A89] CRC32
10 94,4 [81F1D3C8] [B5B0E370] CRC32
11 99,9 [9E88EAC3] [E4995A40] CRC32
12 99,9 [E61C7A42] [E7872C06] CRC32
 
Об альбоме (сборнике)
Looking for a failure proof LP with a constellation of 5 stars Brazilian artists? Do not miss the first LP by Os Gatos, the Legendary instrumental Bossa Jazz group that features Durval Ferreira, Eumir Deodato, Edson Maciel, Honorato, J. T. Meirelles, Copinha, Maurício Einhorn, Paulo Moura, Maurílio Santos, Neco and Wilson das Neves.
As explained at the first Os Gatos release at Loronix, this group released only two LPs and this is their debut, Os Gatos – Os Gatos (1964). Everything is fine on this LP, Deodato proves again that is a great arranger, with a style that can be recognized, even on this early work.
22:13
294
Нет комментариев. Ваш будет первым!