Поиск

(Samba Jazz/Funk) Jorge Ben - Africa Brasil - 1976, FLAC (image+.cue), lossless

Треклист:
Jorge Ben - Africa Brasil
Жанр: Samba Jazz/Funk
Год выпуска диска: 1976
Производитель диска: Phonogram/Philips - 6349.187 - Brazil
Источник: My CD
Аудио кодек: FLAC
Тип рипа: image+.cue
Битрейт аудио: lossless
Продолжительность: 41:37
Трэклист:
01 - Ponta de Lanca Africano (Umbabarauma)
02 - Hermes Trismegisto Escreveu
03 - O Filosofo
04 - Meus Filhos Meu Tesouro
05 - O Plebeu
06 - Taj Mahal
07 - Xica da Silva
08 - A Historia de Jorge
09 - Camisa 10 da Gavea
10 - Cavaleiro do Cavalo Imaculado
11 - Africa Brasil (Zumbi)
 
Scans
 
Информация
This is Jorge Ben - Africa Brasil (1976), for Philips, featuring well-known Jorge Ben tunes, including Ponta de Lanca Africano (Umbabarauma) -- the opening track and my selection to Loronix Preview Center -- Taj Mahal, Xica da Silva, Camisa 10 da Gavea and others. Personnel listing features a constellation of Brazilian musicians, including Djalma Correa, Wilson das Neves, Ze Roberto Bertrami and the legendary Ze Bigorna.
Это Хорхе Бена - Африка Бразилия (1976), для Philips, с участием известных Хорхе Бена мелодий, в том числе Понте-де-Lanca Негритянская (Umbabarauma) - трек открытие и мой выбор в Loronix Предварительный центр - Тадж-Махал, Xica да Силва , Д. 10 Camisa Gávea и другие. Список функций персонала созвездия бразильских музыкантов, в том числе Джалма Корреа, Уилсон Дас Невес, Зе Роберто Bertrami и легендарный Ze Bigorna.
Personnel
Jorge Ben
(guitar, voice)
Dadi
(bass)
Pedrinho
(drums)
Ze Roberto Bertrami
(keyboards)
Luna, Nenem, Gustavo, Joaozinho, Canegal, Doutor, Djalma Correa, Hermes, Ariovaldo, Wilson das Neves
(percussion)
Darcy, Zezinho, Marcio Montarroyos
(piston)
Ze Bigorna, Oberdan
(sax)
Regina, Evinha, Claudinha, Marisa, Waldyr
(choir)
 
EAC Лог
Exact Audio Copy V0.99 prebeta 5 from 4. May 2009
EAC extraction logfile from 17. January 2010, 18:34
Jorge Ben / África Brasil
Used drive : HL-DT-STDVDRAM GH20NS15 Adapter: 0 ID: 0
Read mode : Secure
Utilize accurate stream : Yes
Defeat audio cache : Yes
Make use of C2 pointers : No
Read offset correction : 667
Overread into Lead-In and Lead-Out : No
Fill up missing offset samples with silence : Yes
Delete leading and trailing silent blocks : No
Null samples used in CRC calculations : Yes
Used interface : Installed external ASPI interface
Used output format : User Defined Encoder
Selected bitrate : 1024 kBit/s
Quality : High
Add ID3 tag : No
Command line compressor : C:\Program Files\Exact Audio Copy\Flac\flac.exe
Additional command line options : -8 -A tukey(0.25) -A gauss(0.1875) -b 4096 -V -T "artist=%a" -T "title=%t" -T "album=%g" -T "date=%y" -T "tracknumber=%n" -T "genre=%m" %s --sector-align
TOC of the extracted CD
Track | Start | Length | Start sector | End sector
---------------------------------------------------------
1 | 0:00.00 | 3:54.64 | 0 | 17613
2 | 3:54.64 | 3:07.36 | 17614 | 31674
3 | 7:02.25 | 3:30.71 | 31675 | 47495
4 | 10:33.21 | 3:55.40 | 47496 | 65160
5 | 14:28.61 | 3:10.09 | 65161 | 79419
6 | 17:38.70 | 3:13.43 | 79420 | 93937
7 | 20:52.38 | 4:08.08 | 93938 | 112545
8 | 25:00.46 | 3:50.46 | 112546 | 129841
9 | 28:51.17 | 4:11.35 | 129842 | 148701
10 | 33:02.52 | 4:47.37 | 148702 | 170263
11 | 37:50.14 | 3:47.09 | 170264 | 187297
Range status and errors
Selected range
Filename D:\Torrents.ru\Jorge Ben Jor\Jorge Ben - África Brasil\Jorge Ben - África Brasil.wav
Peak level 100.0 %
Range quality 100.0 %
Test CRC 967B7D3F
Copy CRC 967B7D3F
Copy OK
No errors occurred
End of status report
 
Audiochecker
AUDIOCHECKER v2.0 beta (build 457) - by Dester - opdester@freemail.hu
~~~~~~~~~~~~~~~~~~~~~~~~~~~~~~~~~~
-=== DO NOT EDIT THIS FILE! ===-
Path: ...\Jorge Ben - África Brasil
1 -=- Jorge Ben - África Brasil.flac -=- CDDA (99%)
214566708
 
Tau Analyzer
Download available for power users only.
11:35
562
Нет комментариев. Ваш будет первым!