Поиск

(Cuban Jazz/Latin Jazz) Chucho Valdes & Irakere - Afrocubanismo Live! - 1996, APE (image+.cue), lossless

(Cuban Jazz/Latin Jazz) Chucho Valdes & Irakere - Afrocubanismo Live! - 1996, APE (image+.cue), lossless
Треклист:
Chucho Valdés & Irakere - Afrocubanismo Live!
Жанр: Cuban Jazz/Latin Jazz
Release Date: Nov 15, 1996
Год выпуска диска: 2000
Производитель диска: Канада
Label: Bembe Records
Аудио кодек: APE
Тип рипа: image+.cue
Битрейт аудио: lossless
Продолжительность: 61:59
Источник: нонэйм, автор: barin99
Трэклист:
1. Analis [live] 7:40
2. Cha Cha Cha 9:06
3. Neurosis 11:57
4. Rumba Tonada 4:50
5. Estella a las Estrellas 10:08
6. Building Bridges 8:47
7. Xiomara 9:31
(Latin Jazz) Chucho Valdés & Irakere - Afrocubanismo live! - 1996, MP3 , 320 kbps
 
EAC log:
Exact Audio Copy V0.99 prebeta 5 from 4. May 2009
EAC extraction logfile from 12. January 2010, 22:29
Chucho Valdйs & Irakere / AFROCUBANISMO Live!
Used drive : TSSTcorpDVD+-RW TS-U633A Adapter: 0 ID: 1
Read mode : Secure
Utilize accurate stream : Yes
Defeat audio cache : Yes
Make use of C2 pointers : No
Read offset correction : 6
Overread into Lead-In and Lead-Out : No
Fill up missing offset samples with silence : Yes
Delete leading and trailing silent blocks : No
Null samples used in CRC calculations : Yes
Used interface : Native Win32 interface for Win NT & 2000
Used output format : Internal WAV Routines
Sample format : 44.100 Hz; 16 Bit; Stereo
TOC of the extracted CD
Track | Start | Length | Start sector | End sector
---------------------------------------------------------
1 | 0:00.00 | 7:50.37 | 0 | 35286
2 | 7:50.37 | 9:07.35 | 35287 | 76346
3 | 16:57.72 | 11:57.35 | 76347 | 130156
4 | 28:55.32 | 4:49.03 | 130157 | 151834
5 | 33:44.35 | 10:14.74 | 151835 | 197958
6 | 43:59.34 | 8:44.53 | 197959 | 237311
7 | 52:44.12 | 9:30.35 | 237312 | 280096
Range status and errors
Selected range
Filename C:\_Arc\EAC_Out\Chucho Valdйs & Irakere - AFROCUBANISMO Live!\Chucho Valdйs & Irakere - AFROCUBANISMO Live!.wav
Peak level 100.0 %
Range quality 100.0 %
Copy CRC 6654EACA
Copy OK
No errors occurred
AccurateRip summary
Track 1 accurately ripped (confidence 2) [A6A847A2]
Track 2 accurately ripped (confidence 2) [8C8BC40B]
Track 3 accurately ripped (confidence 2) [1CF45BBB]
Track 4 accurately ripped (confidence 2) [D29D7A2F]
Track 5 accurately ripped (confidence 2) [CFEC3377]
Track 6 accurately ripped (confidence 2) [37ADC6E9]
Track 7 accurately ripped (confidence 2) [89917363]
All tracks accurately ripped
End of status report
Download available for power users only.
11:35
185
Нет комментариев. Ваш будет первым!