Поиск

(Bossa Nova/Latin Jazz) Edu Lobo - Limite Das Aguas - 1976, FLAC (image+.cue), lossless

Треклист:
Edu Lobo - Limite Das Aguas
Жанр: Bossa Nova/Latin Jazz
Год выпуска диска: 1976
Производитель диска: Continental Discos - 1.35.404-001 - Brazil
Источник: My CD
Аудио кодек: FLAC
Тип рипа: image+.cue
Битрейт аудио: lossless
Продолжительность: 33:33
Трэклист:
01 - Uma Vez Um Caso
02 - Negro Negro
03 - Considerando
04 - Toada
05 - Gingado Dobrado (Nordestino)
06 - Limite das Águas
07 - Cinco Crianças
08 - Segue o Coração
09 - Repente
 
Scans
 
Информация
This is Edu Lobo - Limite das Aguas (1976), for Continental, featuring one of the most requested artists by Loronix community, backed by a constellation of Brazilian musicians. Edu Lobo delivers a blend of Jazz with Brazilian music from Nordeste, Northeast region. Arrangements are in charge of Mauricio Mendonca, also known as Mauricio Maestro from the vocal group Boca Livre. Joyce vocals can be heard in two tracks, as described at personnel listing section.
Это Эду Лобо - Лимите Das Aguas (1976), для Continental, Featuring одним из наиболее востребованных художников сообщества Loronix, подкрепленную созвездия бразильских музыкантов. Edu Lobo обеспечивает смесь джаза с бразильской музыки Nordeste, Северо-Восточного региона. Меры отвечают за Маурисио Мендонка, также известный как Маурисио Maestro с вокальной группой Boca Livre. Джойс вокал можно услышать в двух направлениях, как описано в разделе персонала листинг.
Personnel
Edu Lobo
(arrangements, voice, violao)
Cristovao Bastos
(electric piano)
Rubinho
(drums)
Mauricio Maestro, Edson Lobo
(bass)
Toninho Horta
(violao)
Claudio Guimaraes
(guitar)
Marcio Montarroyos
(trumpet)
Edson Maciel
(trombone)
Jorginho, Macae
(alto sax)
Oberdan
(tenor sax)
Geraldo
(baritone sax)
Os 3 Morais
(vocal)
Gege, Claudio Carybe, Rubinho
(percussion)
Danilo Caymmi, Paulo Guimaraes, Mauro Senise, Nivaldo Ornellas, Dimitri
(flute)
Joyce
(vocals)
Lindolfo Gaya, Otavio Basso
(conduction)
Claudio Bertrami
(bass)
Jacques Morelenbaum
(cello)
Wanda Lobo, Malu, Cybele, Angela, Fernando Leporace
(choir)
 
EAC Лог
Exact Audio Copy V0.99 prebeta 5 from 4. May 2009
EAC extraction logfile from 17. January 2010, 19:01
Edu Lobo / Limite Das Águas
Used drive : HL-DT-STDVDRAM GH20NS15 Adapter: 0 ID: 0
Read mode : Secure
Utilize accurate stream : Yes
Defeat audio cache : Yes
Make use of C2 pointers : No
Read offset correction : 667
Overread into Lead-In and Lead-Out : No
Fill up missing offset samples with silence : Yes
Delete leading and trailing silent blocks : No
Null samples used in CRC calculations : Yes
Used interface : Installed external ASPI interface
Used output format : User Defined Encoder
Selected bitrate : 1024 kBit/s
Quality : High
Add ID3 tag : No
Command line compressor : C:\Program Files\Exact Audio Copy\Flac\flac.exe
Additional command line options : -8 -A tukey(0.25) -A gauss(0.1875) -b 4096 -V -T "artist=%a" -T "title=%t" -T "album=%g" -T "date=%y" -T "tracknumber=%n" -T "genre=%m" %s --sector-align
TOC of the extracted CD
Track | Start | Length | Start sector | End sector
---------------------------------------------------------
1 | 0:00.00 | 4:11.54 | 0 | 18878
2 | 4:11.54 | 3:56.12 | 18879 | 36590
3 | 8:07.66 | 3:31.17 | 36591 | 52432
4 | 11:39.08 | 3:52.61 | 52433 | 69893
5 | 15:31.69 | 2:49.72 | 69894 | 82640
6 | 18:21.66 | 4:01.36 | 82641 | 100751
7 | 22:23.27 | 3:35.25 | 100752 | 116901
8 | 25:58.52 | 3:15.22 | 116902 | 131548
9 | 29:13.74 | 4:19.74 | 131549 | 151047
Range status and errors
Selected range
Filename D:\Torrents.ru\Edu Lobo\Edu Lobo - Limite Das Águas\Edu Lobo - Limite Das Águas.wav
Peak level 100.0 %
Range quality 99.9 %
Test CRC 15B8BDCB
Copy CRC 15B8BDCB
Copy OK
No errors occurred
End of status report
 
Audiochecker
AUDIOCHECKER v2.0 beta (build 457) - by Dester - opdester@freemail.hu
~~~~~~~~~~~~~~~~~~~~~~~~~~~~~~~~~~
-=== DO NOT EDIT THIS FILE! ===-
Path: ...\Edu Lobo - Limite Das Águas
1 -=- Edu Lobo - Limite Das Águas.flac -=- CDDA (99%)
236239220
 
Tau Analyzer
Download available for power users only.
11:36
232
Нет комментариев. Ваш будет первым!