Поиск

(Modern Creative / World Fusion / Progressive Big Band) Peter Apfelbaum / The Hieroglyphics Ensemble - Jodoji Brightness - 1992, FLAC (image+.cue), lossless

Треклист:
Peter Apfelbaum / The Hieroglyphics Ensemble - Jodoji Brightness

Жанр: Modern Creative / World Fusion / Progressive Big Band
Год выпуска диска: 1992
Производитель диска: USA (Antilles 512320)
Аудио кодек: FLAC
Тип рипа: image+.cue
Битрейт аудио: lossless
Продолжительность: 1:10:57
Источник: Собственный рип с оригинального диска
Peter Apfelbaum: tenor saxophone, piano, organ, synthesizer, drums, percussion
Bill Ortiz: trumpet, flugelhorn
Jeff Cressman: trombone, pyramid bell, percussion
James Harvey: trombone
Paul Hanson: alto and tenor saxophones, bassoon
Tony Jones: tenor saxophone
Peck Allmond: soprano, tenor and baritone saxophones, trumpet
Norbert Stachel: soprano, alto, tenor, baritone and bass saxophones, clarinet, flute, piccolo
Will Bernard: guitar
Stan Franks: guitar
Jai Uttal: guitar, harmonium, dotar, percussion
Bo Freeman: bass
Joshua Jones V: drums, timbales, bass drum, congas, bata, vocals
Deszon X. Claiborne: drums, percussion
"Buddha" Robert Huffman: congas, bell tree, gongs, bata, vocals
1. Ghost Train Comes Peacefully
2. Chant #9
3. 500 Years
4. Light Leaving the Spirit Bridge
5. The Hand That Signed the Paper
6. The Glow
7. Gypsies
8. The Gates
9. The Ankh
10. Libya Blues
11. I'll Look For You
12. A Las Estrellas (To the Stars)

 
AMG Review
On its second album, saxophonist Peter Apfelbaum's worldbeat big band slips a bit from the tightrope it had walked successfully on its debut, teetering away from the genuinely attractive global jazz-fusion of the first album and toward the self-indulgent and overly impressionistic exoticism that lesser bands have already explored fully. In other words, as interesting as most of these compositions are in theory (highlife morphs into reggae segues into mbaqanga, all with brainy horn charts), they tend to be pretty tedious in practice. At the core of "The Glow" is the idea of heavy metal guitar on top of massed polyrhythms in the horns; cool concept, right? But as it turns out, there's nothing there: the music sits loudly in one place for five-and-a-half minutes until it stops. "Light Leaving the Spirit Bridge" (as one might infer from its title) is more of the same, as is "The Ankh." But "A las Estrellas (To the Stars)" ends things on a nicely focused and tuneful note. Jazz musicians will probably find lots to appreciate here. More casual listeners are more likely to find themselves impressed but bewildered. ~Rick Anderson, AMG
 
EAC Report
Exact Audio Copy V0.99 prebeta 5 from 4. May 2009
EAC extraction logfile from 10. November 2009, 20:25
Peter Apfelbaum and The Hieroglyphics Ensemble / Jodoji Brightness
Used drive : TSSTcorpCD/DVDW SH-S182M Adapter: 2 ID: 0
Read mode : Secure
Utilize accurate stream : Yes
Defeat audio cache : Yes
Make use of C2 pointers : No
Read offset correction : 6
Overread into Lead-In and Lead-Out : No
Fill up missing offset samples with silence : Yes
Delete leading and trailing silent blocks : No
Null samples used in CRC calculations : Yes
Used interface : Installed external ASPI interface
Used output format : User Defined Encoder
Selected bitrate : 1024 kBit/s
Quality : High
Add ID3 tag : No
Command line compressor : C:\Program Files\FLAC\flac.exe
Additional command line options : -6 -V -T "ARTIST=%a" -T "TITLE=%t" -T "ALBUM=%g" -T "DATE=%y" -T "TRACKNUMBER=%n" -T "GENRE=%m" -T "COMMENT=EAC FLAC -6" %s
TOC of the extracted CD
Track | Start | Length | Start sector | End sector
---------------------------------------------------------
1 | 0:00.33 | 1:16.65 | 33 | 5797
2 | 1:17.23 | 4:49.60 | 5798 | 27532
3 | 6:07.08 | 5:45.02 | 27533 | 53409
4 | 11:52.10 | 4:33.00 | 53410 | 73884
5 | 16:25.10 | 8:11.25 | 73885 | 110734
6 | 24:36.35 | 5:35.18 | 110735 | 135877
7 | 30:11.53 | 4:11.02 | 135878 | 154704
8 | 34:22.55 | 5:32.30 | 154705 | 179634
9 | 39:55.10 | 12:47.60 | 179635 | 237219
10 | 52:42.70 | 6:34.33 | 237220 | 266802
11 | 59:17.28 | 4:10.42 | 266803 | 285594
12 | 63:27.70 | 7:29.28 | 285595 | 319297
Range status and errors
Selected range
Filename C:\Documents and Settings\Igor\My Documents\My Music\eac\Peter Apfelbaum and The Hieroglyphics Ensemble - Jodoji Brightness.wav
Peak level 100.0 %
Range quality 100.0 %
Test CRC 172795A7
Copy CRC 172795A7
Copy OK
No errors occurred
AccurateRip summary
Track 1 accurately ripped (confidence 2) [C8E36497]
Track 2 accurately ripped (confidence 2) [5FB1E645]
Track 3 accurately ripped (confidence 2) [D0B40259]
Track 4 accurately ripped (confidence 2) [3D674014]
Track 5 accurately ripped (confidence 2) [80E2909A]
Track 6 accurately ripped (confidence 2) [7B4EF54F]
Track 7 accurately ripped (confidence 2) [E08C165F]
Track 8 accurately ripped (confidence 2) [8248610E]
Track 9 accurately ripped (confidence 2) [0054E5B5]
Track 10 accurately ripped (confidence 2) [229CC66E]
Track 11 accurately ripped (confidence 2) [EA3D17ED]
Track 12 accurately ripped (confidence 2) [9BFD3D20]
All tracks accurately ripped
End of status report
Download available for power users only.
11:37
326
Нет комментариев. Ваш будет первым!