Поиск

(Bossa Nova/Latin Jazz) Milton Nascimento - Journey To Dawn - 1979, FLAC (image+.cue), lossless

Треклист:
Milton Nascimento - Journey To Dawn
Жанр: Bossa Nova/Latin Jazz
Год выпуска диска: 1979
Производитель диска: A&M Records Inc. - Brazil
Источник: My CD
Аудио кодек: FLAC
Тип рипа: image+.cue
Битрейт аудио: lossless
Продолжительность: 36:21
Трэклист:
01 - Pablo II / Pablo / Pablo II
02 - Idolatrada
03 - Unencounter (Cancao da America)
04 - Maria Maria
05 - Journey To Dawn
06 - O Cio da Terra
07 - Paula e Bebeto
08 - Maria Três Filhos
09 - Credo
10 - A Louca
 
Scans
 
Информация
This is Milton Nascimento - Journey to Dawn (1979), for A&M, recorded in the US, featuring Milton Nascimento backed by renowned Brazilian and American musicians.
Это Милтона Насименто - Путешествие к Dawn (1979), для & М, зарегистрированные в США, Featuring Милтона Насименто поддержке известных бразильских и американских музыкантов.
Personnel
Milton Nascimento
(voice, violao, piano)
Nelson Angelo
(guitar, violao)
Hugo Fattoruso
(piano, keyboards)
Novelli
(bass)
Robertinho Silva
(drums)
Nana Vasconcellos
(percussion)
Bill Kurausch & Co.
(strings)
Gayle Levant
(harp)
Steve Madaio
(trumpet)
Chuck Findley
(trumpet, trombone)
Lon Price
(sax tenor)
Jim Price
(trombone)
Adi Moenda, Bell Moenda, Dina Moenda, Lina Moenda, Jim Price, Milton Nascimento, Nelson Angelo, Novelli, Lo Borges, Oscar Castro Neves, Beto Guedes, Maria Fatima, Robertinho Silva, Nana Vasconcellos, Hugo Fattoruso
(vocals)
 
EAC Лог
Exact Audio Copy V0.99 prebeta 5 from 4. May 2009
EAC extraction logfile from 17. January 2010, 17:57
Milton Nascimento / Journey To Dawn
Used drive : HL-DT-STDVDRAM GH20NS15 Adapter: 0 ID: 0
Read mode : Secure
Utilize accurate stream : Yes
Defeat audio cache : Yes
Make use of C2 pointers : No
Read offset correction : 667
Overread into Lead-In and Lead-Out : No
Fill up missing offset samples with silence : Yes
Delete leading and trailing silent blocks : No
Null samples used in CRC calculations : Yes
Used interface : Installed external ASPI interface
Used output format : User Defined Encoder
Selected bitrate : 1024 kBit/s
Quality : High
Add ID3 tag : No
Command line compressor : C:\Program Files\Exact Audio Copy\Flac\flac.exe
Additional command line options : -8 -A tukey(0.25) -A gauss(0.1875) -b 4096 -V -T "artist=%a" -T "title=%t" -T "album=%g" -T "date=%y" -T "tracknumber=%n" -T "genre=%m" %s --sector-align
TOC of the extracted CD
Track | Start | Length | Start sector | End sector
---------------------------------------------------------
1 | 0:00.00 | 4:50.72 | 0 | 21821
2 | 4:50.72 | 4:41.33 | 21822 | 42929
3 | 9:32.30 | 2:56.45 | 42930 | 56174
4 | 12:29.00 | 3:15.68 | 56175 | 70867
5 | 15:44.68 | 3:31.34 | 70868 | 86726
6 | 19:16.27 | 3:38.64 | 86727 | 103140
7 | 22:55.16 | 3:33.07 | 103141 | 119122
8 | 26:28.23 | 2:43.06 | 119123 | 131353
9 | 29:11.29 | 3:47.36 | 131354 | 148414
10 | 32:58.65 | 3:23.08 | 148415 | 163647
Range status and errors
Selected range
Filename D:\Torrents.ru\Milton Nascimento\Milton Nascimento - Journey To Dawn\Milton Nascimento - Journey To Dawn.wav
Peak level 100.0 %
Range quality 100.0 %
Test CRC CC29135B
Copy CRC CC29135B
Copy OK
No errors occurred
End of status report
 
Audiochecker
AUDIOCHECKER v2.0 beta (build 457) - by Dester - opdester@freemail.hu
~~~~~~~~~~~~~~~~~~~~~~~~~~~~~~~~~~
-=== DO NOT EDIT THIS FILE! ===-
Path: ...\Milton Nascimento - Journey To Dawn
1 -=- Milton Nascimento - Journey To Dawn.flac -=- CDDA (100%)
242813652
 
Tau Analyzer
По всем вопросам пишите личное сообщение пользователю M0p94ok.
11:34
314
Нет комментариев. Ваш будет первым!