Поиск

(Brazilian Jazz/Samba Jazz) Dorival Caymmi - Caymmi - 1985, FLAC (image+.cue), lossless

Треклист:
Dorival Caymmi - Caymmi
Жанр: Brazilian Jazz/Samba Jazz
Год выпуска диска: 1985
Производитель диска: Fundacao Emilio Odebrecht - Brazil
Источник: My CD
Аудио кодек: FLAC
Тип рипа: image+.cue
Битрейт аудио: lossless
Продолжительность:
Disc 1 - 41:19
Disc 2 - 31:50
 
Scans
 
Информация
This is Dorival Caymmi – Caymmi (1985), recorded by Fundacao Emilio Odebrecht to celebrate Dorival Caymmi 70th anniversary in 1985. This is not a commercial album, distributed only to Fundacao Emilio Odebrecht customers. Caymmi is 100% made of new recordings with Dorival Caymmi and his violao on the first CD and Dorival Caymmi with Maestro Radames Gnattali on the second CD.
Это Dorival Caymmi - Caymmi (1985), записанный Fundacao Эмилио Одебрехт праздновать Dorival Caymmi 70-летие в 1985 году. Это не коммерческий альбом, распространяется только на Fundacao Эмилио Одебрехт клиентов. Caymmi на 100% из новых записей с Dorival Caymmi и его Violão на первый CD и Dorival Caymmi с маэстро Радамес Gnattali на второй CD.
Personnel
Dorival Caymmi
(music, voice, violao)
Radames Gnattali
(piano, arrangements)
Aloisio Didier
(keyboards)
Joel Nascimento
(bandolim)
Luiz Otavio Braga
(violão 7 cordas)
Mauricio Carrilho, Joaquim dos Santos
(violao)
Henrique Cazes
(cavaquinho)
Dazinho
(flute)
Oscar Bolao, Beto Cazes
(percussion)
Zeca Assumpcao
( bass)
Camerata Carioca
(choir)
 
Disc 1
Трэклист:
Dorival Caymmi & Violão
01 - Depoimento de Jorge Amado
02 - É Doce Morrer no Mar
03 - Festa de Rua
04 - A Preta do Acarajé
05 - Canção da Partida (História de Pescadores)
06 - A Lenda do Abaeté
07 - O Que É Que a Baiana Tem
08 - Depoimento de Caetano Veloso
09 - Depoimento de Tom Jobim
10 - Das Rosas
11 - Dora
12 - Eu Fiz Uma Viagem
13 - Peguei Um Ita no Norte
14 - Maracangalha
15 - Acalanto
16 - Depoimento de Carybe
 
EAC Лог
Exact Audio Copy V0.99 prebeta 5 from 4. May 2009
EAC extraction logfile from 23. January 2010, 16:42
Dorival Caymmi / Caymmi Disc 1
Used drive : HL-DT-STDVDRAM GH20NS15 Adapter: 0 ID: 0
Read mode : Secure
Utilize accurate stream : Yes
Defeat audio cache : Yes
Make use of C2 pointers : No
Read offset correction : 667
Overread into Lead-In and Lead-Out : No
Fill up missing offset samples with silence : Yes
Delete leading and trailing silent blocks : No
Null samples used in CRC calculations : Yes
Used interface : Installed external ASPI interface
Used output format : User Defined Encoder
Selected bitrate : 1024 kBit/s
Quality : High
Add ID3 tag : No
Command line compressor : C:\Program Files\Exact Audio Copy\Flac\flac.exe
Additional command line options : -8 -A tukey(0.25) -A gauss(0.1875) -b 4096 -V -T "artist=%a" -T "title=%t" -T "album=%g" -T "date=%y" -T "tracknumber=%n" -T "genre=%m" %s --sector-align
TOC of the extracted CD
Track | Start | Length | Start sector | End sector
---------------------------------------------------------
1 | 0:00.00 | 1:13.35 | 0 | 5509
2 | 1:13.35 | 2:18.02 | 5510 | 15861
3 | 3:31.37 | 3:22.46 | 15862 | 31057
4 | 6:54.08 | 3:04.61 | 31058 | 44918
5 | 9:58.69 | 1:58.36 | 44919 | 53804
6 | 11:57.30 | 2:56.07 | 53805 | 67011
7 | 14:53.37 | 2:59.42 | 67012 | 80478
8 | 17:53.04 | 2:08.69 | 80479 | 90147
9 | 20:01.73 | 1:12.59 | 90148 | 95606
10 | 21:14.57 | 2:07.06 | 95607 | 105137
11 | 23:21.63 | 4:48.72 | 105138 | 126809
12 | 28:10.60 | 1:52.65 | 126810 | 135274
13 | 30:03.50 | 2:50.07 | 135275 | 148031
14 | 32:53.57 | 3:10.02 | 148032 | 162283
15 | 36:03.59 | 3:36.13 | 162284 | 178496
16 | 39:39.72 | 1:39.35 | 178497 | 185956
Range status and errors
Selected range
Filename D:\Torrents.ru\Dorival Caymmi\Dorival Caymmi - Caymmi\Disc 1\Dorival Caymmi - Caymmi Disc 1.wav
Peak level 100.0 %
Range quality 100.0 %
Test CRC 87C541E0
Copy CRC 87C541E0
Copy OK
No errors occurred
End of status report
 
Audiochecker
AUDIOCHECKER v2.0 beta (build 457) - by Dester - opdester@freemail.hu
~~~~~~~~~~~~~~~~~~~~~~~~~~~~~~~~~~
-=== DO NOT EDIT THIS FILE! ===-
Path: ...\Disc 1
1 -=- Dorival Caymmi - Caymmi Disc 1.flac -=- CDDA (100%)
260468628
 
Disc 2
Трэклист:
Dorival Caymmi & Radames Gnattali
01 - Caymmiana (Radamés Gnattali) Instrumental
02 - Você Já Foi à Bahia
03 - João Valentão
04 - O Samba da Minha Terra
05 - Sargaço Mar
06 - A Mãe D'água e a Menina
07 - Pescaria
08 - Vatapá
09 - Marina
10 - Dois de Fevereiro
11 - Oração de Mãe Menininha
 
EAC Лог
Exact Audio Copy V0.99 prebeta 5 from 4. May 2009
EAC extraction logfile from 23. January 2010, 17:07
Dorival Caymmi / Caymmi Disc 2
Used drive : HL-DT-STDVDRAM GH20NS15 Adapter: 0 ID: 0
Read mode : Secure
Utilize accurate stream : Yes
Defeat audio cache : Yes
Make use of C2 pointers : No
Read offset correction : 667
Overread into Lead-In and Lead-Out : No
Fill up missing offset samples with silence : Yes
Delete leading and trailing silent blocks : No
Null samples used in CRC calculations : Yes
Used interface : Installed external ASPI interface
Used output format : User Defined Encoder
Selected bitrate : 1024 kBit/s
Quality : High
Add ID3 tag : No
Command line compressor : C:\Program Files\Exact Audio Copy\Flac\flac.exe
Additional command line options : -8 -A tukey(0.25) -A gauss(0.1875) -b 4096 -V -T "artist=%a" -T "title=%t" -T "album=%g" -T "date=%y" -T "tracknumber=%n" -T "genre=%m" %s --sector-align
TOC of the extracted CD
Track | Start | Length | Start sector | End sector
---------------------------------------------------------
1 | 0:00.00 | 3:23.03 | 0 | 15227
2 | 3:23.03 | 2:17.04 | 15228 | 25506
3 | 5:40.07 | 2:00.60 | 25507 | 34566
4 | 7:40.67 | 3:22.20 | 34567 | 49736
5 | 11:03.12 | 2:44.12 | 49737 | 62048
6 | 13:47.24 | 2:32.37 | 62049 | 73485
7 | 16:19.61 | 4:36.02 | 73486 | 94187
8 | 20:55.63 | 2:24.28 | 94188 | 105015
9 | 23:20.16 | 2:56.54 | 105016 | 118269
10 | 26:16.70 | 2:41.54 | 118270 | 130398
11 | 28:58.49 | 2:51.36 | 130399 | 143259
Range status and errors
Selected range
Filename D:\Torrents.ru\Dorival Caymmi\Dorival Caymmi - Caymmi\Disc 2\Dorival Caymmi - Caymmi Disc 2.wav
Peak level 100.0 %
Range quality 100.0 %
Test CRC 9E107128
Copy CRC 9E107128
Copy OK
No errors occurred
End of status report
 
Audiochecker
AUDIOCHECKER v2.0 beta (build 457) - by Dester - opdester@freemail.hu
~~~~~~~~~~~~~~~~~~~~~~~~~~~~~~~~~~
-=== DO NOT EDIT THIS FILE! ===-
Path: ...\Disc 2
1 -=- Dorival Caymmi - Caymmi Disc 2.flac -=- CDDA (100%)
260415380
По всем вопросам пишите личное сообщение пользователю M0p94ok.
11:33
221
Нет комментариев. Ваш будет первым!