Поиск

(Bossa Nova/Vocal Jazz/Latin Jazz) Doris Monteiro - Agora - 1976, FLAC (image+.cue), lossless

Треклист:
Doris Monteiro - Agora
Жанр: Bossa Nova/Vocal Jazz/Latin Jazz
Год выпуска диска: 1976
Производитель диска: EMI-Odeon - Brazil
Источник: My CD
Аудио кодек: FLAC
Тип рипа: image+.cue
Битрейт аудио: lossless
Продолжительность: 33:13
Трэклист:
01 - Maita (Giovana)
02 - Flauta de Lata (Sueli Costa / Cacaso)
03 - Partida (João de Aquino / Paulo César Pinheiro)
04 - Dia de Feira (João de Aquino / Jésus Rocha)
05 - Lugar Comum (Gilberto Gil / João Donato)
06 - Eu Hein Rosa (João Nogueira / Paulo César Pinheiro)
07 - Choro de Nada (Eduardo Souto Neto / Geraldo Carneiro)
08 - Pra Não Padecer (Carlos Dafé / Vandenberg)
09 - Lamento no Morro (Tom Jobim / Vinicius de Moraes)
10 - A Banca do Distinto (Billy Blanco)
11 - Tema de Doris (Ricardo)
 
Scans
 
Информация
This is Doris Monteiro - Agora (1976), for Odeon, featuring arrangements and conduction by the mighty Maestro Geraldo Vespar, another Brazilian music legend that I had the chance to meet with the help of Loronix. Doris and Maestro Geraldo Vespar are backed by a constellation of Brazilian musicians, including Sivuca, Copinha, Juarez, and many other well-known names that you can check at personnel listing below. This album is of a strange beauty and you cannot skip it.
Это Дорис Монтейро - "Агора" (1976), для Одеон, Featuring договоренностей и проведения могучим Maestro Жералду Vespar, другая легенда бразильской музыке, которую я имел возможность встретиться с помощью Loronix. Дорис и Maestro Жералду Vespar подкреплены созвездия бразильских музыкантов, в том числе Sivuca, Copinha, Сьюдад-Хуарес, и многие другие известные имена, которые вы можете проверить на персонал листинг ниже. Этот альбом имеет странную красоту и вы не можете пропустить его.
 
EAC Лог
Exact Audio Copy V0.99 prebeta 5 from 4. May 2009
EAC extraction logfile from 17. January 2010, 16:45
Doris Monteiro / Agora
Used drive : HL-DT-STDVDRAM GH20NS15 Adapter: 0 ID: 0
Read mode : Secure
Utilize accurate stream : Yes
Defeat audio cache : Yes
Make use of C2 pointers : No
Read offset correction : 667
Overread into Lead-In and Lead-Out : No
Fill up missing offset samples with silence : Yes
Delete leading and trailing silent blocks : No
Null samples used in CRC calculations : Yes
Used interface : Installed external ASPI interface
Used output format : User Defined Encoder
Selected bitrate : 1024 kBit/s
Quality : High
Add ID3 tag : No
Command line compressor : C:\Program Files\Exact Audio Copy\Flac\flac.exe
Additional command line options : -8 -A tukey(0.25) -A gauss(0.1875) -b 4096 -V -T "artist=%a" -T "title=%t" -T "album=%g" -T "date=%y" -T "tracknumber=%n" -T "genre=%m" %s --sector-align
TOC of the extracted CD
Track | Start | Length | Start sector | End sector
---------------------------------------------------------
1 | 0:00.00 | 2:57.62 | 0 | 13336
2 | 2:57.62 | 1:54.13 | 13337 | 21899
3 | 4:52.00 | 4:04.03 | 21900 | 40202
4 | 8:56.03 | 2:46.40 | 40203 | 52692
5 | 11:42.43 | 4:06.58 | 52693 | 71200
6 | 15:49.26 | 2:54.12 | 71201 | 84262
7 | 18:43.38 | 3:46.45 | 84263 | 101257
8 | 22:30.08 | 3:22.53 | 101258 | 116460
9 | 25:52.61 | 2:25.23 | 116461 | 127358
10 | 28:18.09 | 2:28.65 | 127359 | 138523
11 | 30:46.74 | 2:26.01 | 138524 | 149474
Range status and errors
Selected range
Filename D:\Torrents.ru\Doris Monteiro\Doris Monteiro - Agora\Doris Monteiro - Agora.wav
Peak level 100.0 %
Range quality 100.0 %
Test CRC 5091D235
Copy CRC 5091D235
Copy OK
No errors occurred
End of status report
 
Audiochecker
AUDIOCHECKER v2.0 beta (build 457) - by Dester - opdester@freemail.hu
~~~~~~~~~~~~~~~~~~~~~~~~~~~~~~~~~~
-=== DO NOT EDIT THIS FILE! ===-
Path: ...\Doris Monteiro - Agora
1 -=- Doris Monteiro - Agora.flac -=- CDDA (100%)
70009252
 
Tau Analyzer
По всем вопросам пишите личное сообщение пользователю M0p94ok.
11:33
185
Нет комментариев. Ваш будет первым!