Поиск

(Samba Jazz/Bossa Nova/Latin Jazz) Milton Banana Trio - Balacando Com Milton Banana Trio - 1966, FLAC (image+.cue), lossless

Треклист:
Milton Banana Trio - Balacando Com Milton Banana Trio
Жанр: Samba Jazz/Bossa Nova/Latin Jazz
Год выпуска диска: 1966
Производитель диска: Odeon - Japan
Источник: My CD
Аудио кодек: FLAC
Тип рипа: image+.cue
Битрейт аудио: lossless
Продолжительность: 28:08
Трэклист:
01 - Cidade Vazia (Baden Powell / Luis Fernando Freire)
02 - Barquinho Diferente (Sergio Augusto)
03 - Sao Salvador (Durval Ferreira / Aglae)
04 - Amanha (Walter Santos / Tereza Souza)
05 - Improviso (Cido)
06 - A Resposta (Marcos Valle / Paulo Sergio Valle)
07 - Sonho de Um Carnaval (Chico Buarque)
08 - Feitinho Pro Poeta (Baden Powell / Luis Fernando Freire)
09 - Aruanda (Carlos Lyra / Geraldo Vandre)
10 - Tristeza (Haroldo Lobo / Niltinho Tristeza)
11 - Ora Bolas (Ian Guest / Zilmar de Araujo)
12 - Encanto Triste (Durval Ferreira / Pedro Camargo)
 
Информация
Personnel
Milton Banana
(drums)
Cid
(piano)
Mario
(bass)
This is Milton Banana Trio - Balancando com Milton Banana Trio (1966), for Odeon, self explanatory, Milton Banana is one of the greatest Bossa Nova drummers, just Joao Gilberto favorite and the creator of Bossa Nova drumming style. Milton Banana is the musician who invented the bossa nova drumming style. An extremely busy session man during the first period of bossa nova, he recorded the historic Chega de Saudade (Joгo Gilberto's debut album), the equally historic Getz-Gilberto, and recorded extensively with Tom Jobim, Joгo Donato, and many others. He also performed gigs every night with people like Luнs Eзa, Johnny Alf, Roberto Menescal, Carlos Lyra, Ed Lincoln, Newton Mendoзa, Claudete Soares, Baden Powell, Sérgio Mendes, Luiz Bonfá, Bola Sete (in Punta del Este, Uruguay), and others.
Это Milton Banana Trio - Balancando COM Milton Banana Trio (1966), для Одеон, пояснительная самоуправления, Милтон Банан является одним из величайших Bossa Nova барабанщики, просто любимый Жуан Жилберту и создатель Bossa Nova барабанил стиля. Милтон банан является музыкантом, который изобрел Bossa Nova барабанил стиля. Очень занятой человек сессию в течение первого периода, босса-новы, он записал исторические Chega De Saudade (Joгo Жилберту дебютного альбома), в равной степени историческим Getz-Gilberto, и записал с широкой Tom Jobim, Joгo Донато, и многие другие. Он также выступал Концерты каждую ночь с такими людьми Luнs Eзa, Джонни Альф, Menescal Роберто Карлос Лира, Эд Линкольн, Ньютон Mendoзa, Claudete Соарес, Баден Пауэлл, Сержио Мендес, Луис Bonfa, Бола Сете (в Пунта-дель-Эсте, Уругвай), и другие.
 
EAC Лог
Exact Audio Copy V0.99 prebeta 5 from 4. May 2009
EAC extraction logfile from 19. January 2010, 15:32
Milton Banana Trio / Balaçando
Used drive : HL-DT-STDVDRAM GH20NS15 Adapter: 0 ID: 0
Read mode : Secure
Utilize accurate stream : Yes
Defeat audio cache : Yes
Make use of C2 pointers : No
Read offset correction : 667
Overread into Lead-In and Lead-Out : No
Fill up missing offset samples with silence : Yes
Delete leading and trailing silent blocks : No
Null samples used in CRC calculations : Yes
Used interface : Installed external ASPI interface
Used output format : User Defined Encoder
Selected bitrate : 1024 kBit/s
Quality : High
Add ID3 tag : No
Command line compressor : C:\Program Files\Exact Audio Copy\Flac\flac.exe
Additional command line options : -8 -A tukey(0.25) -A gauss(0.1875) -b 4096 -V -T "artist=%a" -T "title=%t" -T "album=%g" -T "date=%y" -T "tracknumber=%n" -T "genre=%m" %s --sector-align
TOC of the extracted CD
Track | Start | Length | Start sector | End sector
---------------------------------------------------------
1 | 0:00.00 | 2:22.52 | 0 | 10701
2 | 2:22.52 | 2:19.55 | 10702 | 21181
3 | 4:42.32 | 2:03.10 | 21182 | 30416
4 | 6:45.42 | 2:28.53 | 30417 | 41569
5 | 9:14.20 | 2:18.32 | 41570 | 51951
6 | 11:32.52 | 2:13.30 | 51952 | 61956
7 | 13:46.07 | 2:17.25 | 61957 | 72256
8 | 16:03.32 | 2:18.48 | 72257 | 82654
9 | 18:22.05 | 2:07.72 | 82655 | 92251
10 | 20:30.02 | 2:13.45 | 92252 | 102271
11 | 22:43.47 | 1:52.68 | 102272 | 110739
12 | 24:36.40 | 3:31.37 | 110740 | 126601
Range status and errors
Selected range
Filename D:\Torrents.ru\Milton Banana Trio\Milton Banana Trio - Balaçando\Milton Banana Trio - Balaçando.wav
Peak level 100.0 %
Range quality 100.0 %
Test CRC 7ECA01D2
Copy CRC 7ECA01D2
Copy OK
No errors occurred
End of status report
 
Audiochecker
AUDIOCHECKER v2.0 beta (build 457) - by Dester - opdester@freemail.hu
~~~~~~~~~~~~~~~~~~~~~~~~~~~~~~~~~~
-=== DO NOT EDIT THIS FILE! ===-
Path: ...\Milton Banana Trio - Balaçando
1 -=- Milton Banana Trio - Balaçando.flac -=- CDDA (100%)
221487652
11:40
329
Нет комментариев. Ваш будет первым!