Поиск

(Bossa Nova/Vocal Jazz/Latin Jazz) Maria Creuza - Yo, Maria Creuza - 1990, FLAC (image+.cue), lossless

Треклист:
Maria Creuza - Yo, Maria Creuza
Жанр: Bossa Nova/Vocal Jazz/Latin Jazz
Год выпуска диска: 1990
Производитель диска: Alfa Records - AFCD-2 - Switzerland
Источник: My CD
Аудио кодек: FLAC
Тип рипа: image+.cue
Битрейт аудио: lossless
Продолжительность: 31:29
Трэклист:
01. Mas que Nada
02. Dindi
03. Chega de Saudade
04. Por Causa de Voce
05. Das Rosas
06. Chove La Fora
07. O Cantador
08. Saudade da Bahia
09. Corcovado
10. Maria Vai com as Outras
11. Estrada do Sol
12. Marina
 
Scans
 
Информация
Nascida no interior da Bahia, mudou-se para Salvador com a família. Foi crooner de conjuntos musicais e trabalhou em emissoras de rádio durante a adolescência, o que rendeu-lhe a fama para obter seu próprio programa na televisão local, Encontro com Maria Creuza. Participou de festivais, em Salvador e no Rio, cantando músicas da dupla Antônio Carlos (com quem se casaria) e Jocafi, e ganhou prêmio de melhor intérprete em 1969. No início da década de 70 apresentou-se ao lado de Toquinho e Vinicius de Moraes, em shows que resultaram em discos. Destaque para o da boate La Fusa, na Argentina, e o disco resultante, um dos mais populares de música brasileira nos países latino-americanos. Maria Creuza era uma das cantoras preferidas de Vinicius, fato que por si só ajudou bastante em sua carreira. Seus discos foram lançados no Brasil, Japão e em diversos países da Europa, onde se apresentou com freqüência em espetáculos e festivais. Com mais de 10 álbuns lançados, continua gravando discos e fazendo shows. Alguns de seus grandes sucessos foram "Festa no Terreiro de Alaketu" (Antônio Carlos Pinto), "Mas que Doidice" (Antônio Carlos/ Jocafi), "Eu Disse Adeus" (Roberto Carlos), "Pois É" (Chico Buarque/ Tom Jobim), "Eu Sei que Vou Te Amar" (Tom/ Vinicius).
Родился в Баия, он переехал в Сальвадор со своей семьей. Он был эстрадный певец, музыкальных ансамблей и работал на радио в подростковый период, за который он получил репутацию за свое шоу на местном телевидении, встреча с Марией Creuza. Он участвовал в фестивалях в Сальвадоре и Рио, распевая песни дуэтом Антонио Карлоса (которых он женился) и Jocafi, и выиграла награду как лучший исполнитель в 1969 году. В начале 70-х представил вместе с Toquinho и Виниций де Мораес, в концертах, которые привели к записи. Важнейшие для ночного клуба La Fusa в Аргентине, и в результате диск, один из самых популярных бразильской музыки в странах Латинской Америки. Мария Creuza был одним из самых любимых певиц Виниций, тот факт, что только помогло многое в его карьере. Его записи были освобождены в Бразилии, Японии и нескольких стран Европы, где она выступала часто в выставках и фестивалях. Обладая более чем 10 альбомов выпущено, по-прежнему осуществления записи и делать шоу. Некоторые из его хитов были "фестиваля в городе Alaketu" (Антонио Карлос Пинто), "Что Doidice" (Antonio Carlos / Jocafi), "I Said Goodbye" (Роберто Карлос), "Для тебя" (Chico Buarque / Tom Jobim), "Eu Sei Que Te Vou Амару" (Tom / Виниций).
 
EAC Лог
Exact Audio Copy V0.99 prebeta 5 from 4. May 2009
EAC extraction logfile from 22. February 2010, 19:37
Maria Creuza / Yo, Maria Creuza
Used drive : HL-DT-STDVDRAM GH20NS15 Adapter: 0 ID: 0
Read mode : Secure
Utilize accurate stream : Yes
Defeat audio cache : Yes
Make use of C2 pointers : No
Read offset correction : 667
Overread into Lead-In and Lead-Out : No
Fill up missing offset samples with silence : Yes
Delete leading and trailing silent blocks : No
Null samples used in CRC calculations : Yes
Used interface : Installed external ASPI interface
Used output format : User Defined Encoder
Selected bitrate : 1024 kBit/s
Quality : High
Add ID3 tag : No
Command line compressor : C:\Program Files\Exact Audio Copy\Flac\flac.exe
Additional command line options : -8 -A tukey(0.25) -A gauss(0.1875) -b 4096 -V -T "artist=%a" -T "title=%t" -T "album=%g" -T "date=%y" -T "tracknumber=%n" -T "genre=%m" %s --sector-align
TOC of the extracted CD
Track | Start | Length | Start sector | End sector
---------------------------------------------------------
1 | 0:00.00 | 2:26.37 | 0 | 10986
2 | 2:26.37 | 2:40.60 | 10987 | 23046
3 | 5:07.22 | 1:50.18 | 23047 | 31314
4 | 6:57.40 | 2:36.22 | 31315 | 43036
5 | 9:33.62 | 3:17.55 | 43037 | 57866
6 | 12:51.42 | 2:12.10 | 57867 | 67776
7 | 15:03.52 | 2:31.18 | 67777 | 79119
8 | 17:34.70 | 2:35.65 | 79120 | 90809
9 | 20:10.60 | 2:47.25 | 90810 | 103359
10 | 22:58.10 | 4:02.62 | 103360 | 121571
11 | 27:00.72 | 2:06.68 | 121572 | 131089
12 | 29:07.65 | 2:21.10 | 131090 | 141674
Range status and errors
Selected range
Filename D:\Torrents.ru\Maria Creuza\Maria Creuza - Yo, Maria Creuza\Maria Creuza - Yo, Maria Creuza.wav
Peak level 99.2 %
Range quality 100.0 %
Test CRC 41E3DB21
Copy CRC 41E3DB21
Copy OK
No errors occurred
End of status report
 
Audiochecker
AUDIOCHECKER v2.0 beta (build 457) - by Dester - opdester@freemail.hu
~~~~~~~~~~~~~~~~~~~~~~~~~~~~~~~~~~
-=== DO NOT EDIT THIS FILE! ===-
Path: ...\Maria Creuza - Yo, Maria Creuza
1 -=- Maria Creuza - Yo, Maria Creuza.flac -=- CDDA (100%)
159499748
 
Tau Analyzer
Download available for power users only.
11:40
271
Нет комментариев. Ваш будет первым!