Поиск

(Bossa Nova/Vocal Jazz/Latin Jazz) Elis Regina - Falso Brilhante - 1976, FLAC (image+.cue), lossless

Треклист:
Elis Regina - Falso Brilhante
Жанр: Bossa Nova/Vocal Jazz/Latin Jazz
Год выпуска диска: 1976
Производитель диска: Philips (Phonogram) - 6349.159 - Brazil
Источник: My CD
Аудио кодек: FLAC
Тип рипа: image+.cue
Битрейт аудио: lossless
Продолжительность: 35:49
Трэклист:
01 - Como Nossos Pais (Belchior)
02 - Velha Roupa Colorida (Belchior)
03 - Los Hermanos (Atahualpa Yupanqui)
04 - Um Por Todos (Joao Bosco / Aldir Blanc)
05 - Fascinacao (F. D. Marchetti / Armando Louzada)
06 - Jardins de Infancia (Joao Bosco / Aldir Blanc)
07 - Quero (Thomas Roth)
08 - Gracias a La Vida (Violeta Parra)
09 - O Cavaleiro e os Moinhos (Joao Bosco / Aldir Blanc)
10 - Tatuagem (Chico Buarque / Ruy Guerra)
 
Scans
 
Информация
This is Elis Regina - Falso Brilhante (1976), for Philips. I always thought this album was a live recording of the famous Elis Regina's Falso Brilhante show, but is a studio session based on the repertoire of that successful show, continuously on stage for more than a year from December 1975 until February 1977. Falso Brilhante is also about one of my favorites Brazilian composers, Belchior, author Como os Nossos Pais, one of greatest Elis Regina interpretations, which is Falso Brilhante opening track.
Это Elis Regina - Falso Brilhante (1976), для Philips. Я всегда думал, этот альбом, живая запись Falso шоу знаменитого Elis Regina's Brilhante, но студия сессии, на основе репертуара показывает, что успешные, постоянно на сцене более чем за год в период с декабря 1975 года до февраля 1977 года. Falso Brilhante также об одном из моих любимых бразильских композиторов, Belchior, автор Кому OS Nossos Паис ", одного из величайших Elis Regina толкований, которые Falso Brilhante открытии дорожки.
Personnel
Cesar Camargo Mariano
(piano, keyboards, violao, arrangements)
Crispim Del Cristia, Natan Marques
(guitar, violao)
Nene
(drums)
Wilson Gomes
(bass)
 
EAC Лог
Exact Audio Copy V0.99 prebeta 5 from 4. May 2009
EAC extraction logfile from 17. January 2010, 20:44
Elis Regina / Falso Brilhante
Used drive : HL-DT-STDVDRAM GH20NS15 Adapter: 0 ID: 0
Read mode : Secure
Utilize accurate stream : Yes
Defeat audio cache : Yes
Make use of C2 pointers : No
Read offset correction : 667
Overread into Lead-In and Lead-Out : No
Fill up missing offset samples with silence : Yes
Delete leading and trailing silent blocks : No
Null samples used in CRC calculations : Yes
Used interface : Installed external ASPI interface
Used output format : User Defined Encoder
Selected bitrate : 1024 kBit/s
Quality : High
Add ID3 tag : No
Command line compressor : C:\Program Files\Exact Audio Copy\Flac\flac.exe
Additional command line options : -8 -A tukey(0.25) -A gauss(0.1875) -b 4096 -V -T "artist=%a" -T "title=%t" -T "album=%g" -T "date=%y" -T "tracknumber=%n" -T "genre=%m" %s --sector-align
TOC of the extracted CD
Track | Start | Length | Start sector | End sector
---------------------------------------------------------
1 | 0:00.00 | 4:25.31 | 0 | 19905
2 | 4:25.31 | 4:17.50 | 19906 | 39230
3 | 8:43.06 | 3:41.07 | 39231 | 55812
4 | 12:24.13 | 2:28.15 | 55813 | 66927
5 | 14:52.28 | 3:08.17 | 66928 | 81044
6 | 18:00.45 | 2:55.27 | 81045 | 94196
7 | 20:55.72 | 3:48.47 | 94197 | 111343
8 | 24:44.44 | 4:27.69 | 111344 | 131437
9 | 29:12.38 | 2:12.08 | 131438 | 141345
10 | 31:24.46 | 4:24.33 | 141346 | 161178
Range status and errors
Selected range
Filename D:\Torrents.ru\Elis Regina\Elis Regina - Falso Brilhante (LP)\Elis Regina - Falso Brilhante.wav
Peak level 100.0 %
Range quality 100.0 %
Test CRC 1DA5AB05
Copy CRC 1DA5AB05
Copy OK
No errors occurred
End of status report
 
Audiochecker
AUDIOCHECKER v2.0 beta (build 457) - by Dester - opdester@freemail.hu
~~~~~~~~~~~~~~~~~~~~~~~~~~~~~~~~~~
-=== DO NOT EDIT THIS FILE! ===-
Path: ...\Elis Regina - Falso Brilhante (LP)
1 -=- Elis Regina - Falso Brilhante.flac -=- CDDA (100%)
7673332
 
Tau Analyzer
11:41
358
Нет комментариев. Ваш будет первым!