Поиск

(Samba Jazz/Bossa Nova/Latin Jazz) Milton Banana Trio - Ao Meu Amigo Vinicius (Samba E Isso Vol. 5) - 1981, FLAC (image+.cue), lossless

Треклист:
Milton Banana Trio - Ao Meu Amigo Vinicius (Samba E Isso Vol. 5)
Жанр: Samba Jazz/Bossa Nova/Latin Jazz
Год выпуска диска: 1981
Производитель диска: RCA Studio - 103.0405 - Brazil
Источник: My CD
Аудио кодек: FLAC
Тип рипа: image+.cue
Битрейт аудио: lossless
Продолжительность: 35:37
Трэклист:
01 - O Morro Nao Tem Vez (Tom Jobim / Vinicius de Moraes) Chega de Saudade (Tom Jobim / Vinicius de Moraes)
02 - Se Todos Fossem Iguais a Voce (Tom Jobim / Vinicius de Moraes) Minha Namorada (Carlos Lyra / Vinicius de Moraes)
03 - A Felicidade (Tom Jobim / Vinicius de Moraes) Agua de Beber (Tom Jobim / Vinicius de Moraes) Ela E Carioca (Tom Jobim / Vinicius de Moraes)
04 - Samba Em Preludio (Baden Powell / Vinicius de Moraes) Primavera (Carlos Lyra / Vinicius de Moraes)
05 - So Danco Samba (Tom Jobim / Vinicius de Moraes) Brigas Nunca Mais (Tom Jobim / Vinicius de Moraes)
06 - Bom Dia Tristeza (Vinicius de Moraes / Adoniran Barbosa) Sei La (A Vida Tem Sempre Razao) (Toquinho / Vinicius de Moraes) A Tonga da Mironga do Kabulete (Toquinho / Vinicius de Moraes)
07 - Amor Em Paz (Tom Jobim / Vinicius de Moraes) Insensatez (Tom Jobim / Vinicius de Moraes)
08 - Samba de Orly (Chico Buarque / Toquinho / Vinicius de Moraes) Regra Tres (Toquinho / Vinicius de Moraes)
09 - Serenata do Adeus (Vinicius de Moraes) Gente Humilde (Garoto / Vinicius de Moraes / Chico Buarque)
10 - Deixa (Baden Powell / Vinicius de Moraes) Tem Do (Baden Powell / Vinicius de Moraes)
11 - Rancho das Flores (Vinicius de Moraes) Marcha da Quarta-feira de Cinzas (Vinicius de Moraes / Carlos Lyra)
12 - Garota de Ipanema (Tom Jobim / Vinicius de Moraes) Tarde Em Itapoa (Toquinho / Vinicius de Moraes)
 
Scans
 
Информация
This is Milton Banana Trio – Ao Meu Amigo Vinicius | Samba e Isso Vol. 5 (1981), for RCA, featuring Milton Banana performing a repertoire based on Vinicius de Moraes music, the last out of five albums released under a series called “Ao Meu Amigo”, tribute albums to Milton Banana friends. Milton Banana delivers his unique drumming and sings in some tracks.
I would like to talk about this enchanting cover. It is the kind of cover they no longer make on the narrow CD space. Milton Banana is drinking in front of the legendary Garota de Ipanema, which is alleged to be the place where Garota de Ipanema tune was composed by Vinicius de Moraes and Antonio Carlos Jobim. There are several nice details, the empty chair in front of Milton, probably Vinicius de Moraes chair that passed away one year earlier, the girl of Ipanema itself on bikini, the urban sign indicating the restaurant address, Vinicius de Moraes with Prudente de Moraes street, the sun up showing the photo was taken in the middle of the day with Garota de Ipanema empty, anyway, it is the kind of cover that you spent a day running over each detail.
Milton Banana Trio - Ao Meu Amigo Vinicius | E Samba Isso Vol. 5 (1981), для RCA, Featuring Milton Banana имея репертуар, основанный на Виниций де Мораес музыки, последний из пяти альбомов, выпущенных в рамках серии "Ao Meu Amigo", дань альбомы, Милтон Банана друзей. Milton Banana обеспечивает его уникальные барабанов и поет в некоторых треках.
Я хотел бы поговорить об этой очаровательной покрова. Это такая покрова они уже не делают на узком пространстве диска. Milton Banana пьет перед легендарной девушки-де-Ипанема, которое предположительно может быть тем местом, где девушки-де-Ипанема мелодия была состоят Винисиуша де Мораес и Антонио Карлоса Жобима. Есть несколько приятных деталей, пустой стул перед Мильтон, вероятно, Виниций де Мораес стул, который скончался на год раньше, девушка Ипанема себя на бикини, городского знака с указанием адреса ресторанов, Виниций де Мораес с Prudente де Мораес улице , вс до показывая снимок был сделан в середине дня с девушкой-ди-Ипанема пуст, во всяком случае, это вид покрытия, что вы провели день подряд каждую деталь.
 
EAC Лог
Exact Audio Copy V0.99 prebeta 5 from 4. May 2009
EAC extraction logfile from 23. February 2010, 10:49
Milton Banana Trio / Ao Meu Amigo Vinicius (Samba É Isso Vol. 5)
Used drive : HL-DT-STDVDRAM GH20NS15 Adapter: 0 ID: 0
Read mode : Secure
Utilize accurate stream : Yes
Defeat audio cache : Yes
Make use of C2 pointers : No
Read offset correction : 667
Overread into Lead-In and Lead-Out : No
Fill up missing offset samples with silence : Yes
Delete leading and trailing silent blocks : No
Null samples used in CRC calculations : Yes
Used interface : Installed external ASPI interface
Used output format : User Defined Encoder
Selected bitrate : 1024 kBit/s
Quality : High
Add ID3 tag : No
Command line compressor : C:\Program Files\Exact Audio Copy\Flac\flac.exe
Additional command line options : -8 -A tukey(0.25) -A gauss(0.1875) -b 4096 -V -T "artist=%a" -T "title=%t" -T "album=%g" -T "date=%y" -T "tracknumber=%n" -T "genre=%m" %s --sector-align
TOC of the extracted CD
Track | Start | Length | Start sector | End sector
---------------------------------------------------------
1 | 0:00.00 | 3:15.50 | 0 | 14674
2 | 3:15.50 | 3:03.48 | 14675 | 28447
3 | 6:19.23 | 2:28.31 | 28448 | 39578
4 | 8:47.54 | 2:43.05 | 39579 | 51808
5 | 11:30.59 | 2:58.35 | 51809 | 65193
6 | 14:29.19 | 3:26.16 | 65194 | 80659
7 | 17:55.35 | 3:04.26 | 80660 | 94485
8 | 20:59.61 | 3:19.36 | 94486 | 109446
9 | 24:19.22 | 3:35.27 | 109447 | 125598
10 | 27:54.49 | 2:21.66 | 125599 | 136239
11 | 30:16.40 | 2:53.32 | 136240 | 149246
12 | 33:09.72 | 2:27.72 | 149247 | 160343
Range status and errors
Selected range
Filename D:\Torrents.ru\Milton Banana Trio\Milton Banana Trio - Ao Meu Amigo Vinicius (Samba É Isso Vol. 5)\Milton Banana Trio - Ao Meu Amigo Vinicius (Samba É Isso Vol. 5).wav
Peak level 100.0 %
Range quality 100.0 %
Test CRC 8E246C64
Copy CRC 8E246C64
Copy OK
No errors occurred
End of status report
 
Audiochecker
AUDIOCHECKER v2.0 beta (build 457) - by Dester - opdester@freemail.hu
~~~~~~~~~~~~~~~~~~~~~~~~~~~~~~~~~~
-=== DO NOT EDIT THIS FILE! ===-
Path: ...\Milton Banana Trio - Ao Meu Amigo Vinicius (Samba É Isso Vol. 5)
1 -=- Milton Banana Trio - Ao Meu Amigo Vinicius (Samba É Isso Vol. 5).flac -=- CDDA (100%)
181134516
 
Tau Analyzer
По всем вопросам пишите личное сообщение пользователю M0p94ok.
11:42
259
Нет комментариев. Ваш будет первым!