Поиск

(Bossa Nova/Samba Jazz/Latin Jazz) Geraldo Vandre - Canto Geral - 1967, FLAC (image+.cue), lossless

Geraldo Vandre - Canto Geral
Жанр: Bossa Nova/Samba Jazz/Latin Jazz
Год выпуска диска: 1967
Производитель диска: EMI Odeon - 062.421148 - Brazil
Источник: My CD
Аудио кодек: FLAC
Тип рипа: image+.cue
Битрейт аудио: lossless
Продолжительность: 36:50
Трэклист:
01 - Terra Plana
02 - Companheira
03 - Maria Rita
04 - De Serra de Terra e de Mar
05 - Cantiga Brava
06 - Ventania (De Como Um Homem Perdeu Seu Cavalo e Continuou Andando)
07 - O Plantador
08 - João e Maria
09 - Arueira
10 - Guerrilheira
 
Scans
 
Информация
Это Жералду Вандре - Canto Geral (1968), для Одеон, где можно увидеть участием Трио Maraya доставку вокал, инструментальные аранжировки, вокальные аранжировки и их типичные документы играют, такие как queixada-де-ослик, CA-чи-чи и альта. Согласно с Луисом Америко и его 100 дискотеки Fundamentais компиляция, это наиболее политически мобилизованы Жералду Вандре альбом, выпущенный в момент, когда Бразилия собирается вступить на тяжелейший период военной диктатуры с выпуском АИ-5. Вы можете проверить Луиса Америко обзор на эту ссылку. Кстати, песни Geral перечислен на Луиса Америко сайт в качестве одного из необходимых 100 бразильских популярных музыкальных альбомов.
This is Geraldo Vandre - Canto Geral (1968), for Odeon, featuring the participation of Trio Maraya delivering vocals, instrumental arrangements, vocal arrangements and their typical instruments playing, such like queixada-de-burro, ca-chi-chi and viola. According with Luiz Americo and his 100 Discos Fundamentais compilation, this is the most politically engaged Geraldo Vandre album, released in a time where Brazil was about to enter on the hardest period of the military dictatorship with the release of AI-5. You can check Luiz Americo review at this link. By the way, Canto Geral is listed at Luiz Americo website as one of the 100 essential Brazilian popular music albums. Tracks include:
 
EAC Лог
Exact Audio Copy V0.99 prebeta 5 from 4. May 2009
EAC extraction logfile from 18. January 2010, 9:49
Geraldo Vandré / Canto Geral
Used drive : HL-DT-STDVDRAM GH20NS15 Adapter: 0 ID: 0
Read mode : Secure
Utilize accurate stream : Yes
Defeat audio cache : Yes
Make use of C2 pointers : No
Read offset correction : 667
Overread into Lead-In and Lead-Out : No
Fill up missing offset samples with silence : Yes
Delete leading and trailing silent blocks : No
Null samples used in CRC calculations : Yes
Used interface : Installed external ASPI interface
Used output format : User Defined Encoder
Selected bitrate : 1024 kBit/s
Quality : High
Add ID3 tag : No
Command line compressor : C:\Program Files\Exact Audio Copy\Flac\flac.exe
Additional command line options : -8 -A tukey(0.25) -A gauss(0.1875) -b 4096 -V -T "artist=%a" -T "title=%t" -T "album=%g" -T "date=%y" -T "tracknumber=%n" -T "genre=%m" %s --sector-align
TOC of the extracted CD
Track | Start | Length | Start sector | End sector
---------------------------------------------------------
1 | 0:00.00 | 3:49.48 | 0 | 17222
2 | 3:49.48 | 3:09.65 | 17223 | 31462
3 | 6:59.38 | 3:31.73 | 31463 | 47360
4 | 10:31.36 | 4:20.33 | 47361 | 66893
5 | 14:51.69 | 4:07.01 | 66894 | 85419
6 | 18:58.70 | 5:14.72 | 85420 | 109041
7 | 24:13.67 | 3:29.56 | 109042 | 124772
8 | 27:43.48 | 2:33.47 | 124773 | 136294
9 | 30:17.20 | 3:14.30 | 136295 | 150874
10 | 33:31.50 | 3:18.37 | 150875 | 165761
Range status and errors
Selected range
Filename D:\Torrents.ru\Geraldo Vandré\Geraldo Vandré - Canto Geral\Geraldo Vandré - Canto Geral.wav
Peak level 100.0 %
Range quality 100.0 %
Test CRC ACE2004B
Copy CRC ACE2004B
Copy OK
No errors occurred
End of status report
 
Audiochecker
AUDIOCHECKER v2.0 beta (build 457) - by Dester - opdester@freemail.hu
~~~~~~~~~~~~~~~~~~~~~~~~~~~~~~~~~~
-=== DO NOT EDIT THIS FILE! ===-
Path: ...\Geraldo Vandré - Canto Geral
1 -=- Geraldo Vandré - Canto Geral.flac -=- CDDA (100%)
78919124
12:42
428
Нет комментариев. Ваш будет первым!