Поиск

(Samba Jazz/Bossa Nova/Latin Jazz) Milton Banana Trio - Ao Meu Amigo Tom (Samba E Isso Vol. 4) - 1980, FLAC (image+.cue), lossless

Треклист:
Milton Banana Trio - Ao Meu Amigo Tom (Samba E Isso Vol. 4)
Жанр: Samba Jazz/Bossa Nova/Latin Jazz
Год выпуска диска: 1980
Производитель диска: RCA Eletronica Ltda. - Brazil
Аудио кодек: FLAC
Тип рипа: image+.cue
Битрейт аудио: lossless
Продолжительность: 36:10
Трэклист:
01 - Chega de Saudade (Tom Jobim / Vinicius de Moraes) Desafinado (Tom Jobim / Newton Mendonca) Corcovado (Tom Jobim)
02 - O Morro Nao Tem Vez (Tom Jobim / Vinicius de Moraes) A Felicidade (Tom Jobim / Vinicius de Moraes)
03 - Dindi (Tom Jobim / Aloysio de Oliveira) Demais (Tom Jobim / Aloysio de Oliveira)
04 - Ela E Carioca (Tom Jobim / Vinicius de Moraes) Garota de Ipanema (Tom Jobim / Vinicius de Moraes)
05 - Estrada do Sol (Tom Jobim / Dolores Duran) Estrada Branca (Tom Jobim / Vinicius de Moraes)
06 - Samba do Aviao (Tom Jobim) So Tinha Que Ser Com Voce (Tom Jobim / Aloysio de Oliveira)
07 - Agua de Beber (Tom Jobim / Vinicius de Moraes) Aguas de Marco (Tom Jobim)
08 - Ligia (Tom Jobim) Wave (Vou Te Contar) (Tom Jobim) Triste (Tom Jobim)
09 - Brigas Nunca Mais (Tom Jobim / Vinicius de Moraes) Discussao (Tom Jobim / Newton Mendonca)
10 - Foi a Noite (Tom Jobim / Newton Mendonca) Eu Sei Que Vou Te Amar (Tom Jobim / Newton Mendonca)
11 - Samba de Uma Nota So (Tom Jobim / Newton Mendonça) So Danco Samba (Tom Jobim / Vinicius de Moraes)
12 - Meditacao (Tom Jobim / Newton Mendonca) Amor Em Paz (Tom Jobim / Vinicius de Moraes)
13 - Chovendo na Roseira (Tom Jobim) Se Todos Fossem Iguais a Voce (Tom Jobim / Vinicius de Moraes)
14 - Insensatez (Tom Jobim / Vinicius de Moraes) Inutil Paisagem (Tom Jobim / Aloysio de Oliveira)
15 - Este Seu Olhar (Tom Jobim) So Em Teus Bracos (Tom Jobim)
 
Scans
 
Информация
This is Milton Banana Trio - Ao Meu Amigo Tom | Samba e Isso Volume 4 (1980), for RCA Victor. The formula is the same used on other tributes, instrumental renditions of Antonio Carlos Jobim music featuring pairs of tunes on each track. Ao Meu Amigo Tom has fifteen tracks and 32 Antonio Carlos Jobim compositions.
Это Milton Banana Trio - Ao Meu Amigo Tom | E Samba Isso Том 4 (1980), для RCA Victor. Формула такая же используется и на других притоках, инструментальные выдачей Антонио Карлоса Жобима музыка Featuring пару мелодий на каждом треке. Ao Meu Amigo Том пятнадцать композиций и 32-Антонио Карлоса Жобима композиций.
 
EAC Лог
Exact Audio Copy V0.99 prebeta 5 from 4. May 2009
EAC extraction logfile from 17. January 2010, 19:52
Milton Banana Trio / Ao Meu Amigo Tom (Samba É Isso Vol. 4)
Used drive : HL-DT-STDVDRAM GH20NS15 Adapter: 0 ID: 0
Read mode : Secure
Utilize accurate stream : Yes
Defeat audio cache : Yes
Make use of C2 pointers : No
Read offset correction : 667
Overread into Lead-In and Lead-Out : No
Fill up missing offset samples with silence : Yes
Delete leading and trailing silent blocks : No
Null samples used in CRC calculations : Yes
Used interface : Installed external ASPI interface
Used output format : User Defined Encoder
Selected bitrate : 1024 kBit/s
Quality : High
Add ID3 tag : No
Command line compressor : C:\Program Files\Exact Audio Copy\Flac\flac.exe
Additional command line options : -8 -A tukey(0.25) -A gauss(0.1875) -b 4096 -V -T "artist=%a" -T "title=%t" -T "album=%g" -T "date=%y" -T "tracknumber=%n" -T "genre=%m" %s --sector-align
TOC of the extracted CD
Track | Start | Length | Start sector | End sector
---------------------------------------------------------
1 | 0:00.00 | 2:01.22 | 0 | 9096
2 | 2:01.22 | 2:52.50 | 9097 | 22046
3 | 4:53.72 | 2:54.40 | 22047 | 35136
4 | 7:48.37 | 2:13.73 | 35137 | 45184
5 | 10:02.35 | 2:45.25 | 45185 | 57584
6 | 12:47.60 | 2:14.16 | 57585 | 67650
7 | 15:02.01 | 2:25.25 | 67651 | 78550
8 | 17:27.26 | 2:43.00 | 78551 | 90775
9 | 20:10.26 | 2:24.35 | 90776 | 101610
10 | 22:34.61 | 2:00.66 | 101611 | 110676
11 | 24:35.52 | 1:34.70 | 110677 | 117796
12 | 26:10.47 | 2:38.67 | 117797 | 129713
13 | 28:49.39 | 2:31.56 | 129714 | 141094
14 | 31:21.20 | 2:27.00 | 141095 | 152119
15 | 33:48.20 | 2:22.34 | 152120 | 162803
Range status and errors
Selected range
Filename D:\Torrents.ru\Milton Banana Trio\Milton Banana Trio - Ao Meu Amigo Tom (Samba É Isso Vol. 4)\Milton Banana Trio - Ao Meu Amigo Tom (Samba É Isso Vol. 4).wav
Peak level 100.0 %
Range quality 99.9 %
Test CRC AC5EFD90
Copy CRC AC5EFD90
Copy OK
No errors occurred
End of status report
 
Audiochecker
AUDIOCHECKER v2.0 beta (build 457) - by Dester - opdester@freemail.hu
~~~~~~~~~~~~~~~~~~~~~~~~~~~~~~~~~~
-=== DO NOT EDIT THIS FILE! ===-
Path: ...\Milton Banana Trio - Ao Meu Amigo Tom (Samba É Isso Vol. 4)
1 -=- Milton Banana Trio - Ao Meu Amigo Tom (Samba É Isso Vol. 4).flac -=- CDDA (100%)
2786260
Download available for power users only.
11:39
254
Нет комментариев. Ваш будет первым!