Поиск

(Bossa Nova / Latin Jazz) Bossa de Novo - Nova - 2009, FLAC (tracks+.cue), lossless

(Bossa Nova / Latin Jazz) Bossa de Novo - Nova - 2009, FLAC (tracks+.cue), lossless
Треклист:
Bossa de Novo - Nova
Жанр: Bossa Nova / Latin Jazz
Год выпуска : 2009
Лейбл: Druga Godba
Страна: Словения
Аудио кодек: FLAC
Тип рипа: tracks+.cue
Битрейт аудио: lossless
Продолжительность: 00:51:37
Рип: vuce - What CD


01. Sestanek pod rjuho (3:50)
02. Pesem XIV. divizije (3:46)
03. Samba da minha terra (3:33)
04. Sinicja tozba (3:26)
05. Estate (4:22)
06. Milagre (3:02)
07. Crnobel portret (3:17)
08. O Leaozinho (2:48)
09. Meo fado meu (5:09)
10. Este seu olhar (2:34)
11. Sarava (3:43)
12. O bebado e a equilibrista (4:05)
13. Nad mestom se dani (4:28)
14. Coracao vagabundo (3:35)

 
EAC
Exact Audio Copy V0.99 prebeta 5 from 4. May 2009
EAC extraction logfile from 15. January 2010, 1:04
Bossa de Novo / Nova
Used drive : PHILIPS SPD2412T Adapter: 0 ID: 0
Read mode : Secure
Utilize accurate stream : Yes
Defeat audio cache : Yes
Make use of C2 pointers : No
Read offset correction : 6
Overread into Lead-In and Lead-Out : No
Fill up missing offset samples with silence : Yes
Delete leading and trailing silent blocks : No
Null samples used in CRC calculations : Yes
Used interface : Native Win32 interface for Win NT & 2000
Gap handling : Appended to previous track
Used output format : User Defined Encoder
Selected bitrate : 320 kBit/s
Quality : High
Add ID3 tag : No
Command line compressor : C:\Program Files (x86)\FLAC\flac.exe
Additional command line options : -V -8 -T "artist=%a" -T "title=%t" -T "album=%g" -T "date=%y" -T "tracknumber=%n" -T "genre=%m" %s
TOC of the extracted CD
Track | Start | Length | Start sector | End sector
---------------------------------------------------------
1 | 0:00.00 | 3:50.24 | 0 | 17273
2 | 3:50.24 | 3:45.52 | 17274 | 34200
3 | 7:36.01 | 3:32.48 | 34201 | 50148
4 | 11:08.49 | 3:26.07 | 50149 | 65605
5 | 14:34.56 | 4:21.65 | 65606 | 85245
6 | 18:56.46 | 3:01.47 | 85246 | 98867
7 | 21:58.18 | 3:17.07 | 98868 | 113649
8 | 25:15.25 | 2:47.40 | 113650 | 126214
9 | 28:02.65 | 5:09.04 | 126215 | 149393
10 | 33:11.69 | 2:33.53 | 149394 | 160921
11 | 35:45.47 | 3:42.65 | 160922 | 177636
12 | 39:28.37 | 4:04.70 | 177637 | 196006
13 | 43:33.32 | 4:28.25 | 196007 | 216131
14 | 48:01.57 | 3:35.35 | 216132 | 232291
Track 1
Filename C:\EAC Rips\Bossa de Novo - 2009 - Nova\01 - Sestanek pod rjuho.wav
Pre-gap length 0:00:02.00
Peak level 98.1 %
Track quality 100.0 %
Test CRC B161C897
Copy CRC B161C897
Track not present in AccurateRip database
Copy OK
Track 2
Filename C:\EAC Rips\Bossa de Novo - 2009 - Nova\02 - Pesem XIV. divizije.wav
Pre-gap length 0:00:02.77
Peak level 99.8 %
Track quality 100.0 %
Test CRC CB4C9AF3
Copy CRC CB4C9AF3
Track not present in AccurateRip database
Copy OK
Track 3
Filename C:\EAC Rips\Bossa de Novo - 2009 - Nova\03 - Samba da minha terra.wav
Pre-gap length 0:00:02.77
Peak level 99.9 %
Track quality 100.0 %
Test CRC 61C298B3
Copy CRC 61C298B3
Track not present in AccurateRip database
Copy OK
Track 4
Filename C:\EAC Rips\Bossa de Novo - 2009 - Nova\04 - Sinicja tozba.wav
Peak level 99.9 %
Track quality 100.0 %
Test CRC CAF616B9
Copy CRC CAF616B9
Track not present in AccurateRip database
Copy OK
Track 5
Filename C:\EAC Rips\Bossa de Novo - 2009 - Nova\05 - Estate.wav
Pre-gap length 0:00:02.77
Peak level 78.1 %
Track quality 100.0 %
Test CRC 0C128712
Copy CRC 0C128712
Track not present in AccurateRip database
Copy OK
Track 6
Filename C:\EAC Rips\Bossa de Novo - 2009 - Nova\06 - Milagre.wav
Pre-gap length 0:00:02.77
Peak level 95.5 %
Track quality 99.9 %
Test CRC 39F014F8
Copy CRC 39F014F8
Track not present in AccurateRip database
Copy OK
Track 7
Filename C:\EAC Rips\Bossa de Novo - 2009 - Nova\07 - Crnobel portret.wav
Pre-gap length 0:00:03.77
Peak level 99.9 %
Track quality 100.0 %
Test CRC 62EAC7CF
Copy CRC 62EAC7CF
Track not present in AccurateRip database
Copy OK
Track 8
Filename C:\EAC Rips\Bossa de Novo - 2009 - Nova\08 - O Leaozinho.wav
Pre-gap length 0:00:02.77
Peak level 94.1 %
Track quality 100.0 %
Test CRC 181547AF
Copy CRC 181547AF
Track not present in AccurateRip database
Copy OK
Track 9
Filename C:\EAC Rips\Bossa de Novo - 2009 - Nova\09 - Meo fado meu.wav
Pre-gap length 0:00:03.77
Peak level 90.0 %
Track quality 100.0 %
Test CRC C92A8C4D
Copy CRC C92A8C4D
Track not present in AccurateRip database
Copy OK
Track 10
Filename C:\EAC Rips\Bossa de Novo - 2009 - Nova\10 - Este seu olhar.wav
Pre-gap length 0:00:02.77
Peak level 81.3 %
Track quality 100.0 %
Test CRC 8F683EAD
Copy CRC 8F683EAD
Track not present in AccurateRip database
Copy OK
Track 11
Filename C:\EAC Rips\Bossa de Novo - 2009 - Nova\11 - Sarava.wav
Pre-gap length 0:00:02.77
Peak level 99.8 %
Track quality 100.0 %
Test CRC A59511F8
Copy CRC A59511F8
Track not present in AccurateRip database
Copy OK
Track 12
Filename C:\EAC Rips\Bossa de Novo - 2009 - Nova\12 - O bebado e a equilibrista.wav
Pre-gap length 0:00:02.77
Peak level 96.5 %
Track quality 100.0 %
Test CRC 729E49BD
Copy CRC 729E49BD
Track not present in AccurateRip database
Copy OK
Track 13
Filename C:\EAC Rips\Bossa de Novo - 2009 - Nova\13 - Nad mestom se dani.wav
Pre-gap length 0:00:00.77
Peak level 99.9 %
Track quality 100.0 %
Test CRC C46CA7FB
Copy CRC C46CA7FB
Track not present in AccurateRip database
Copy OK
Track 14
Filename C:\EAC Rips\Bossa de Novo - 2009 - Nova\14 - Coracao vagabundo.wav
Pre-gap length 0:00:02.77
Peak level 87.9 %
Track quality 100.0 %
Test CRC AEE3F721
Copy CRC AEE3F721
Track not present in AccurateRip database
Copy OK
None of the tracks are present in the AccurateRip database
No errors occurred
End of status report
 
CUE
REM GENRE Latin
REM DATE 2009
REM DISCID C30C190E
REM COMMENT "ExactAudioCopy v0.99pb5"
PERFORMER "Bossa de Novo"
TITLE "Nova"
FILE "01 - Sestanek pod rjuho.wav" WAVE
TRACK 01 AUDIO
INDEX 01 00:00:00
TRACK 02 AUDIO
INDEX 00 03:47:41
FILE "02 - Pesem XIV. divizije.wav" WAVE
INDEX 01 00:00:00
TRACK 03 AUDIO
INDEX 00 03:42:69
FILE "03 - Samba da minha terra.wav" WAVE
INDEX 01 00:00:00
FILE "04 - Sinicja tozba.wav" WAVE
TRACK 04 AUDIO
INDEX 01 00:00:00
TRACK 05 AUDIO
INDEX 00 03:23:24
FILE "05 - Estate.wav" WAVE
INDEX 01 00:00:00
TRACK 06 AUDIO
INDEX 00 04:19:07
FILE "06 - Milagre.wav" WAVE
INDEX 01 00:00:00
TRACK 07 AUDIO
INDEX 00 02:57:64
FILE "07 - Crnobel portret.wav" WAVE
INDEX 01 00:00:00
TRACK 08 AUDIO
INDEX 00 03:14:24
FILE "08 - O Leaozinho.wav" WAVE
INDEX 01 00:00:00
TRACK 09 AUDIO
INDEX 00 02:43:57
FILE "09 - Meo fado meu.wav" WAVE
INDEX 01 00:00:00
TRACK 10 AUDIO
INDEX 00 05:06:21
FILE "10 - Este seu olhar.wav" WAVE
INDEX 01 00:00:00
TRACK 11 AUDIO
INDEX 00 02:30:70
FILE "11 - Sarava.wav" WAVE
INDEX 01 00:00:00
TRACK 12 AUDIO
INDEX 00 03:40:07
FILE "12 - O bebado e a equilibrista.wav" WAVE
INDEX 01 00:00:00
TRACK 13 AUDIO
INDEX 00 04:04:12
FILE "13 - Nad mestom se dani.wav" WAVE
INDEX 01 00:00:00
TRACK 14 AUDIO
INDEX 00 04:25:42
FILE "14 - Coracao vagabundo.wav" WAVE
INDEX 01 00:00:00
 
Audiochecker
Started at: воскресенье, 21. 02. 2010. - 21:14.58
14 files found
01 -===- C:\Downloads\Music\Джаз\Bossa de Novo - Nova - 2009\01 - Sestanek pod rjuho.flac
Extracted successfully
Conclusion: This track looks like CDDA with probability 100%
Tempfile successfully deleted.
02 -===- C:\Downloads\Music\Джаз\Bossa de Novo - Nova - 2009\02 - Pesem XIV. divizije.flac
Extracted successfully
Conclusion: This track looks like CDDA with probability 99%
Tempfile successfully deleted.
03 -===- C:\Downloads\Music\Джаз\Bossa de Novo - Nova - 2009\03 - Samba da minha terra.flac
Extracted successfully
Conclusion: This track looks like CDDA with probability 100%
Tempfile successfully deleted.
04 -===- C:\Downloads\Music\Джаз\Bossa de Novo - Nova - 2009\04 - Sinicja tozba.flac
Extracted successfully
Conclusion: This track looks like CDDA with probability 99%
Tempfile successfully deleted.
05 -===- C:\Downloads\Music\Джаз\Bossa de Novo - Nova - 2009\05 - Estate.flac
Extracted successfully
Conclusion: This track looks like CDDA with probability 100%
Tempfile successfully deleted.
06 -===- C:\Downloads\Music\Джаз\Bossa de Novo - Nova - 2009\06 - Milagre.flac
Extracted successfully
Conclusion: This track looks like CDDA with probability 100%
Tempfile successfully deleted.
07 -===- C:\Downloads\Music\Джаз\Bossa de Novo - Nova - 2009\07 - Crnobel portret.flac
Extracted successfully
Conclusion: This track looks like CDDA with probability 100%
Tempfile successfully deleted.
08 -===- C:\Downloads\Music\Джаз\Bossa de Novo - Nova - 2009\08 - O Leaozinho.flac
Extracted successfully
Conclusion: This track looks like CDDA with probability 100%
Tempfile successfully deleted.
09 -===- C:\Downloads\Music\Джаз\Bossa de Novo - Nova - 2009\09 - Meo fado meu.flac
Extracted successfully
Conclusion: This track looks like CDDA with probability 100%
Tempfile successfully deleted.
10 -===- C:\Downloads\Music\Джаз\Bossa de Novo - Nova - 2009\10 - Este seu olhar.flac
Extracted successfully
Conclusion: This track looks like CDDA with probability 99%
Tempfile successfully deleted.
11 -===- C:\Downloads\Music\Джаз\Bossa de Novo - Nova - 2009\11 - Sarava.flac
Extracted successfully
Conclusion: This track looks like CDDA with probability 99%
Tempfile successfully deleted.
12 -===- C:\Downloads\Music\Джаз\Bossa de Novo - Nova - 2009\12 - O bebado e a equilibrista.flac
Extracted successfully
Conclusion: This track looks like CDDA with probability 99%
Tempfile successfully deleted.
13 -===- C:\Downloads\Music\Джаз\Bossa de Novo - Nova - 2009\13 - Nad mestom se dani.flac
Extracted successfully
Conclusion: This track looks like CDDA with probability 100%
Tempfile successfully deleted.
14 -===- C:\Downloads\Music\Джаз\Bossa de Novo - Nova - 2009\14 - Coracao vagabundo.flac
Extracted successfully
Conclusion: This track looks like CDDA with probability 100%
Tempfile successfully deleted.
Finished at: воскресенье, 21. 02. 2010. - 21:25.48 (operation time: 0:10.49)
Download available for power users only.
11:38
190
Нет комментариев. Ваш будет первым!