Поиск

[SACD-R][DSD OF] The Bill Cunliffe Trio - Live At Bernie’s - 2001 (Groove Note Records) (Jazz)

[SACD-R][DSD OF] The Bill Cunliffe Trio - Live At Bernie’s - 2001 (Groove Note Records) (Jazz)
Битрейт аудио:
lossless
Треклист:
The Bill Cunliffe Trio / Live At Bernie’s
Формат записи/Источник записи: [SACD-R][DSD OF]
Жанр: Jazz
Год выпуска диска: 2001
Издатель (лейбл): Groove Note Records
Разрядность: 64(2,8 MHz/1 Bit)
Аудиокодек: DSD
Количество каналов: 2.0
Продолжительность: 01:01:09
Тип рипа: image (ISO)
Контейнер: ISO (*.iso)
Наличие водяных знаков: Нет
Наличие сканов в содержимом раздачи: Буклет PDF
Треклист:
01. Satin Doll
02. Waltz For Debby
03. Ireland
04. Amusing Paramours
05. Sharon
06. Jean
07. Excursions
08. Like A Dream
09. The Way You Look Tonight
10. Imagine
Источник:http://store.acousticsounds.com/d/98890/Bill_Cunliffe_Trio-Live_at_Bernies-DSD_Si...MHz64fs_Download
Доп. информация: Запись на DVD - 4,7 программой ImgBurn.
На усилке 2.0 чистый класс A звучит кристально чисто!!
 
Лог проверки качества: 2.0 - DR15
foobar2000 1.1.10 / Dynamic Range Meter 1.1.1
log date: 2018-02-05 18:59:34
--------------------------------------------------------------------------------
Analyzed: The Bill Cunliffe Trio / Live At Bernie's - 2001_Groove Note Records
--------------------------------------------------------------------------------
DR Peak RMS Duration Track
--------------------------------------------------------------------------------
DR16 -6.24 dB -26.55 dB 7:28 01-Satin Doll
DR17 -6.14 dB -29.07 dB 5:32 02-Waltz For Debby
DR15 -9.97 dB -30.39 dB 5:49 03-Ireland
DR16 -9.71 dB -30.73 dB 5:45 04-Amusing Paramours
DR16 -6.90 dB -27.12 dB 5:31 05-Sharon
DR14 -12.70 dB -32.13 dB 5:19 06-Jean
DR15 -8.75 dB -29.09 dB 8:22 07-Excursions
DR13 -14.60 dB -33.45 dB 5:09 08-Like A Dream
DR18 -6.65 dB -27.66 dB 8:38 09-The Way You Look Tonight
DR14 -10.35 dB -29.39 dB 3:37 10-Imagine
--------------------------------------------------------------------------------
Number of tracks: 10
Official DR value: DR15
Samplerate: 2822400 Hz / PCM Samplerate: 88200 Hz
Channels: 2
Bits per sample: 24
Bitrate: 5645 kbps
Codec: DSD64
==============================================================================
Приватный:
Нет (DHT включён)
Размер:
2.48 Гб (2,663,625,973 байт) » файлов: 4
Участники:
0 раздают, 0 качают (0 участников всего)
Внешние участники:
2 раздают, 1 качают (3 участников всего) [ Обновить ]
Нет сидеров - пишите личное сообщение M0p94ok. Не нравятся торренты? Участники группы Pro-jazz Club могут заказать прямую ссылку на скачивание из облака.
No seeders - write a personal message to M0p94ok. Don't like torrents? Members of Pro-jazz Club group can order a direct download link from the cloud.
20:53
69
Нет комментариев. Ваш будет первым!