Поиск

[SACD-R][BR] Jan Gunnar Hoff - Stories 2L(Lindberg Lyd AS) - 2016 (Jazz / Piano)

[SACD-R][BR] Jan Gunnar Hoff - Stories 2L(Lindberg Lyd AS) - 2016 (Jazz / Piano)
Битрейт аудио:
lossless
Треклист:
Jan Gunnar Hoff / Stories
Формат записи/Источник записи: [SACD-R][BR]
Жанр: Jazz / Piano
Год выпуска диска: 2016
Производитель диска: 2L(Lindberg Lyd AS)
Страна выпуска: NORWAY
Аудиокодек: DST 2.0/5.1
Тип рипа: image (ISO)
Битрейт аудио: 2.8Mhz
Наличие водяных знаков: Нет
Наличие сканов в содержимом раздачи: Только обложка альбома
Продолжительность: 00:57:03
Треклист:
01. Värmlandsvisan 04:39
02. The Elder 04:48
03. Playground 03:33
04. God Only Knows 03:56
05. Absence 03:46
06. Figment I 02:49
07. Good Things 03:19
08. Answer Me 04:22
09. Figment II 02:50
10. Within 04:35
11. Stranger 02:52
12. Blossom 05:03
13. Figment III 02:01
14. Journey Home 03:47
15. Reminiscence 04:38
Доп. информация: Запись на DVD - 4,7 программой ImgBurn.
На усилке 2.0 чистый класс A звучит кристально чисто!!
 
Лог проверки качества: 2.0 - DR12 / 5.1 - DR12
foobar2000 1.1.10 / Dynamic Range Meter 1.1.1
log date: 2017-07-18 17:06:32
--------------------------------------------------------------------------------
Analyzed: JAN GUNNAR HOFF / STORIES - 2016_Label - 2L
--------------------------------------------------------------------------------
DR Peak RMS Duration Track
--------------------------------------------------------------------------------
DR13 -8.16 dB -28.97 dB 4:39 01-Varmlandsvisan
DR11 -8.28 dB -27.08 dB 4:48 02-The Elder
DR11 -4.03 dB -19.44 dB 3:33 03-Playground
DR12 -5.90 dB -25.28 dB 3:56 04-God Only Knows
DR12 -8.76 dB -26.60 dB 3:46 05-Absence
DR13 -3.86 dB -20.28 dB 2:49 06-Figment I
DR11 -7.54 dB -24.28 dB 3:19 07-Good Things
DR13 -8.90 dB -28.20 dB 4:22 08-Answer Me
DR12 -4.14 dB -21.58 dB 2:50 09-Figment II
DR13 -4.16 dB -24.92 dB 4:35 10-Within
DR12 -5.08 dB -24.17 dB 2:52 11-Stranger
DR13 -8.47 dB -27.84 dB 5:03 12-Blossom
DR12 -3.92 dB -21.05 dB 2:01 13-Figment III
DR13 -9.36 dB -29.46 dB 3:47 14-Journey Home
DR13 -7.88 dB -27.36 dB 4:38 15-Reminiscence
--------------------------------------------------------------------------------
Number of tracks: 15
Official DR value: DR12
Samplerate: 2822400 Hz / PCM Samplerate: 88200 Hz
Channels: 6
Bits per sample: 24
Bitrate: 16934 kbps
Codec: DST64
================================================================================
--------------------------------------------------------------------------------
Analyzed: JAN GUNNAR HOFF / STORIES - 2016_Label - 2L
--------------------------------------------------------------------------------
DR Peak RMS Duration Track
--------------------------------------------------------------------------------
DR13 -7.28 dB -25.38 dB 4:39 01-Varmlandsvisan
DR12 -6.16 dB -23.72 dB 4:48 02-The Elder
DR11 -3.20 dB -16.84 dB 3:33 03-Playground
DR12 -3.91 dB -21.54 dB 3:56 04-God Only Knows
DR11 -8.03 dB -23.38 dB 3:46 05-Absence
DR12 -3.15 dB -17.74 dB 2:49 06-Figment I
DR11 -6.55 dB -21.09 dB 3:19 07-Good Things
DR12 -6.89 dB -24.36 dB 4:22 08-Answer Me
DR12 -3.32 dB -19.02 dB 2:50 09-Figment II
DR14 -3.40 dB -21.56 dB 4:35 10-Within
DR12 -3.34 dB -20.79 dB 2:52 11-Stranger
DR12 -7.15 dB -24.73 dB 5:03 12-Blossom
DR12 -3.26 dB -18.55 dB 2:01 13-Figment III
DR13 -7.18 dB -25.51 dB 3:47 14-Journey Home
DR12 -6.01 dB -24.05 dB 4:38 15-Reminiscence
--------------------------------------------------------------------------------
Number of tracks: 15
Official DR value: DR12
Samplerate: 2822400 Hz / PCM Samplerate: 88200 Hz
Channels: 2
Bits per sample: 24
Bitrate: 5645 kbps
Codec: DST64
================================================================================
Приватный:
Нет (DHT включён)
Размер:
3.06 Гб (3,281,903,256 байт) » файлов: 4
Участники:
0 раздают, 0 качают (0 участников всего)
Внешние участники:
5 раздают, 2 качают (7 участников всего) [ Обновить ]
Никого нет на раздаче - пишите ЛС M0p94ok
No seeders - write PM to M0p94ok
20:53
46
Нет комментариев. Ваш будет первым!