Поиск

[SACD-R][BR] HOFF ENSEMBLE - Quiet Winter Night 2L(Lindberg Lyd AS) - 2012 (Jazz/Folk)

[SACD-R][BR] HOFF ENSEMBLE - Quiet Winter Night 2L(Lindberg Lyd AS) - 2012 (Jazz/Folk)
Битрейт аудио:
lossless
Треклист:
HOFF ENSEMBLE / Quiet Winter Night
Формат записи/Источник записи: [SACD-R][BR]
Жанр: Jazz/Folk
Год выпуска диска: 2012
Производитель диска: 2L(Lindberg Lyd AS)
Страна выпуска: NORWAY
Аудиокодек: DST 2.0/5.1
Тип рипа: image (ISO)
Битрейт аудио: 2.8Mhz
Наличие водяных знаков: Нет
Наличие сканов в содержимом раздачи: Только обложка альбома
Продолжительность: 00:50:32
Треклист:
1 Dronning Fjellrose 3:34
2 Stille, stille kommer vi 4:00
3 Dele alle ord og tanker 3:37
4 Redd Mamma 2:53
5 Sulla, sulla krekling 3:13
6 Blagutten 3:57
7 Ville fjellgutt 3:19
8 Hva skal hende na? 4:04
9 Ved balet 2:22
10 Tufsa danser 3:34
11 Vesle, rare bygdeunge 4:06
12 En blanissekveld 2:46
13 Kveldslokk for sma unger 2:56
14 Lys i desember 3:46
15 Ved balet - instrumental bonus version 2:24
Доп. информация: Запись на DVD - 4,7 программой ImgBurn.
На усилке 2.0 чистый класс A звучит кристально чисто!!
 
Лог проверки качества: 2.0 - DR13 / 5.1 - DR14
foobar2000 1.1.10 / Dynamic Range Meter 1.1.1
log date: 2017-06-18 21:24:01
--------------------------------------------------------------------------------
Analyzed: HOFF ENSEMBLE / Quiet Winter Night - 2012_Label - 2L
--------------------------------------------------------------------------------
DR Peak RMS Duration Track
--------------------------------------------------------------------------------
DR14 -3.48 dB -24.75 dB 3:34 01-Dronning Fjellrose
DR16 -3.68 dB -25.69 dB 4:00 02-Stille, stille kommer vi
DR15 -5.23 dB -25.18 dB 3:37 03-Dele alle ord og tanker
DR14 -6.76 dB -26.22 dB 2:53 04-Redd Mamma
DR14 -4.33 dB -24.99 dB 3:13 05-Sulla, sulla krekling
DR15 -3.86 dB -24.65 dB 3:57 06-Blagutten
DR14 -5.81 dB -25.30 dB 3:19 07-Ville fjellgutt
DR13 -3.31 dB -23.43 dB 4:04 08-Hva skal hende na?
DR13 -3.83 dB -23.59 dB 2:22 09-Ved balet
DR14 -6.06 dB -25.93 dB 3:34 10-Tufsa danser
DR16 -4.67 dB -28.72 dB 4:06 11-Vesle, rare bygdeunge
DR16 -3.89 dB -25.65 dB 2:46 12-En blanissekveld
DR12 -7.61 dB -28.36 dB 2:56 13-Kveldslokk for sma unger
DR14 -5.07 dB -25.18 dB 3:46 14-Lys i desember
DR13 -3.93 dB -23.97 dB 2:24 15-Ved balet - instrumental bonus version
--------------------------------------------------------------------------------
Number of tracks: 15
Official DR value: DR14
Samplerate: 2822400 Hz / PCM Samplerate: 88200 Hz
Channels: 6
Bits per sample: 24
Bitrate: 16934 kbps
Codec: DST64
================================================================================
--------------------------------------------------------------------------------
Analyzed: HOFF ENSEMBLE / Quiet Winter Night - 2012_Label - 2L
--------------------------------------------------------------------------------
DR Peak RMS Duration Track
--------------------------------------------------------------------------------
DR12 -3.43 dB -19.67 dB 3:34 01-Dronning Fjellrose
DR14 -3.34 dB -21.34 dB 4:00 02-Stille, stille kommer vi
DR13 -3.60 dB -20.00 dB 3:37 03-Dele alle ord og tanker
DR14 -3.87 dB -21.71 dB 2:53 04-Redd Mamma
DR13 -3.62 dB -20.68 dB 3:13 05-Sulla, sulla krekling
DR13 -3.58 dB -19.87 dB 3:57 06-Blagutten
DR14 -3.66 dB -21.09 dB 3:19 07-Ville fjellgutt
DR12 -3.39 dB -18.89 dB 4:04 08-Hva skal hende na?
DR12 -3.28 dB -19.49 dB 2:22 09-Ved balet
DR14 -3.62 dB -21.12 dB 3:34 10-Tufsa danser
DR15 -3.46 dB -23.36 dB 4:06 11-Vesle, rare bygdeunge
DR15 -3.42 dB -20.59 dB 2:46 12-En blanissekveld
DR12 -6.05 dB -24.43 dB 2:56 13-Kveldslokk for sma unger
DR12 -3.61 dB -19.69 dB 3:46 14-Lys i desember
DR12 -3.33 dB -19.87 dB 2:24 15-Ved balet - instrumental bonus version
--------------------------------------------------------------------------------
Number of tracks: 15
Official DR value: DR13
Samplerate: 2822400 Hz / PCM Samplerate: 88200 Hz
Channels: 2
Bits per sample: 24
Bitrate: 5645 kbps
Codec: DST64
================================================================================
Приватный:
Нет (DHT включён)
Размер:
2.78 Гб (2,984,803,735 байт) » файлов: 9
Участники:
0 раздают, 0 качают (0 участников всего)
Внешние участники:
1 раздают, 0 качают (1 участников всего) [ Обновить ]
Нет сидеров - пишите личное сообщение M0p94ok. Не нравятся торренты? Участники группы Pro-jazz Club могут заказать прямую ссылку на скачивание из облака.
No seeders - write a personal message to M0p94ok. Don't like torrents? Members of Pro-jazz Club group can order a direct download link from the cloud.
20:51
61
Нет комментариев. Ваш будет первым!