Поиск

[SACD-R][BR] Ola Gjeilo - Piano Improvisations 2L(Lindberg Lyd AS) - 2012 (Art Music / Classical)

[SACD-R][BR] Ola Gjeilo - Piano Improvisations 2L(Lindberg Lyd AS) - 2012 (Art Music / Classical)
Битрейт аудио:
lossless
Треклист:
Ola Gjeilo / Piano Improvisations
Формат записи/Источник записи: [SACD-R][BR]
Жанр: Art Music / Classical
Год выпуска диска: 2012
Производитель диска: 2L(Lindberg Lyd AS)
Страна выпуска: NORWAY
Аудиокодек: DST 2.0/5.1
Тип рипа: image (ISO)
Битрейт аудио: 2.8Mhz
Наличие водяных знаков: Нет
Наличие сканов в содержимом раздачи: Только обложка альбома
Продолжительность: 01:09:01
Треклист:
1 Ubi Caritas 4:16
2 Tota Pulchra Es 3:50
3 Prelude (3 pianos) 4:54
4 Meribel 5:13
5 Susanne 4:44
6 Seven Eight (3 pianos) 1:59
7 Dark Blue 3:08
8 Santa Monica 2:48
9 Nebraska (2 pianos) 3:34
10 The Lake 4:37
11 Cloudless (3 pianos) 3:05
12 Light Blue 4:35
13 The Great Plains 3:17
14 Bach Fantasy 2:29
15 The Biltmore Shrine 3:10
16 Little Rock 7:10
17 Chorale 4:22
18 Heart to Heart 1:51
Доп. информация: Запись на DVD - 4,7 программой ImgBurn.
На усилке 2.0 чистый класс A звучит кристально чисто!!
 
Лог проверки качества: 2.0 - DR13 / 5.1 - DR13
foobar2000 1.3.14 / Замер динамического диапазона (DR) 1.1.1
Дата отчёта: 2017-04-21 21:42:23
--------------------------------------------------------------------------------
Анализ: Ola Gjeilo / Piano Improvisations - 2012_Label - 2L
--------------------------------------------------------------------------------
DR Пики RMS Продолжительность трека
--------------------------------------------------------------------------------
DR14 -3.41 дБ -25.33 дБ 4:16 01-Ubi Caritas
DR13 -5.07 дБ -26.93 дБ 3:50 02-Tota Pulchra Es
DR12 -3.32 дБ -21.80 дБ 4:54 03-Prelude (3 pianos)
DR13 -5.34 дБ -26.52 дБ 5:13 04-Meribel
DR12 -5.43 дБ -26.40 дБ 4:44 05-Susanne
DR12 -3.38 дБ -20.53 дБ 1:59 06-Seven Eight (3 pianos)
DR13 -6.70 дБ -27.78 дБ 3:08 07-Dark Blue
DR13 -9.10 дБ -27.99 дБ 2:48 08-Santa Monica
DR12 -3.35 дБ -22.19 дБ 3:34 09-Nebraska (2 pianos)
DR12 -6.71 дБ -26.91 дБ 4:37 10-The Lake
DR12 -5.72 дБ -26.16 дБ 3:05 11-Cloudless (3 pianos)
DR12 -6.54 дБ -27.44 дБ 4:35 12-Light Blue
DR12 -5.05 дБ -24.21 дБ 3:17 13-The Great Plains
DR12 -8.57 дБ -27.89 дБ 2:29 14-Bach Fantasy
DR13 -7.60 дБ -28.13 дБ 3:10 15-The Biltmore Shrine
DR13 -3.39 дБ -24.50 дБ 7:10 16-Little Rock
DR15 -8.94 дБ -32.81 дБ 4:22 17-Chorale
DR12 -14.89 дБ -34.66 дБ 1:51 18-Heart to Heart
--------------------------------------------------------------------------------
Количество треков: 18
Реальные значения DR: DR13
Частота: 2822400 Гц / Частота PCM: 88200 Гц
Каналов: 6
Разрядность: 24
Битрейт: 16934 кбит/с
Кодек: DST64
================================================================================
--------------------------------------------------------------------------------
Анализ: Ola Gjeilo / Piano Improvisations - 2012_Label - 2L
--------------------------------------------------------------------------------
DR Пики RMS Продолжительность трека
--------------------------------------------------------------------------------
DR13 -3.39 дБ -21.01 дБ 4:16 01-Ubi Caritas
DR13 -3.94 дБ -23.34 дБ 3:50 02-Tota Pulchra Es
DR11 -3.36 дБ -18.96 дБ 4:54 03-Prelude (3 pianos)
DR14 -3.38 дБ -22.88 дБ 5:13 04-Meribel
DR13 -4.06 дБ -22.36 дБ 4:44 05-Susanne
DR11 -3.35 дБ -17.18 дБ 1:59 06-Seven Eight (3 pianos)
DR13 -5.51 дБ -24.02 дБ 3:08 07-Dark Blue
DR13 -7.18 дБ -24.34 дБ 2:48 08-Santa Monica
DR11 -3.33 дБ -18.66 дБ 3:34 09-Nebraska (2 pianos)
DR12 -5.01 дБ -23.45 дБ 4:37 10-The Lake
DR13 -4.61 дБ -23.37 дБ 3:05 11-Cloudless (3 pianos)
DR13 -4.69 дБ -23.90 дБ 4:35 12-Light Blue
DR12 -3.44 дБ -20.78 дБ 3:17 13-The Great Plains
DR12 -7.44 дБ -24.18 дБ 2:29 14-Bach Fantasy
DR13 -5.55 дБ -24.57 дБ 3:10 15-The Biltmore Shrine
DR12 -3.29 дБ -21.08 дБ 7:10 16-Little Rock
DR15 -7.13 дБ -28.79 дБ 4:22 17-Chorale
DR13 -12.87 дБ -31.42 дБ 1:51 18-Heart to Heart
--------------------------------------------------------------------------------
Количество треков: 18
Реальные значения DR: DR13
Частота: 2822400 Гц / Частота PCM: 88200 Гц
Каналов: 2
Разрядность: 24
Битрейт: 5645 кбит/с
Кодек: DST64
================================================================================
Приватный:
Нет (DHT включён)
Размер:
3.65 Гб (3,920,621,257 байт) » файлов: 5
Участники:
0 раздают, 0 качают (0 участников всего)
Внешние участники:
1 раздают, 0 качают (1 участников всего) [ Обновить ]
Нет сидеров - пишите личное сообщение M0p94ok. Не нравятся торренты? Участники группы Pro-jazz Club могут заказать прямую ссылку на скачивание из облака.
No seeders - write a personal message to M0p94ok. Don't like torrents? Members of Pro-jazz Club group can order a direct download link from the cloud.
20:50
51
Нет комментариев. Ваш будет первым!