Поиск

[DSD][SACD-R] Robert Len - Hope - 2017 (Jazz) (2xHD) - 2017 (Jazz)

[DSD][SACD-R] Robert Len - Hope - 2017 (Jazz) (2xHD) - 2017 (Jazz)
Битрейт аудио:
lossless
Треклист:
Robert Len / Hope - 2017 (Jazz)
Формат записи/Источник записи: [DSD][SACD-R]
Наличие водяных знаков: Нет
Издание: 2xHD
Год издания/переиздания диска: 2017
Жанр: Jazz
Издатель (лейбл): 2xHD
Продолжительность: 00:41:52
Наличие сканов в содержимом раздачи: Только обложка альбома
Треклист:
01 - Good Morning Heartache (3:42)
02 - Rainy night in Georgia (4:53)
03 - Lover man (Oh, Where can you be?) (3:24)
04 - God was in the water (3:25)
05 - When we dance (4:03)
06 - Let's stay together (4:28)
07 - Earth song (3:41)
08 - Hope (3:53)
09 - The levee broke (3:22)
10 - Hang on (3:28)
11 - Hallelujah (3:33)
Контейнер: ISO (*.iso)
Тип рипа: image+.cue
Разрядность: 64(2,8 MHz/1 Bit)
Формат: DSD
Количество каналов: 2.0
 
Лог проверки качества
foobar2000 1.3.9 / Dynamic Range Meter 1.1.1
log date: 2017-04-09 16:29:33
--------------------------------------------------------------------------------
Analyzed: Robert Len / Hope (2017)
--------------------------------------------------------------------------------
DR Peak RMS Duration Track
--------------------------------------------------------------------------------
DR11 -5.93 dB -20.43 dB 3:42 01-Good Morning Heartache
DR11 -5.66 dB -19.82 dB 4:53 02-Rainy night in Georgia
DR10 -7.15 dB -21.08 dB 3:24 03-Lover man (Oh, Where can you be?)
DR12 -8.17 dB -22.52 dB 3:25 04-God was in the water
DR11 -6.49 dB -20.42 dB 4:03 05-When we dance
DR10 -6.22 dB -20.02 dB 4:28 06-Let's stay together
DR10 -5.67 dB -19.93 dB 3:41 07-Earth song
DR11 -7.26 dB -21.38 dB 3:53 08-Hope
DR11 -6.53 dB -21.28 dB 3:22 09-The levee broke
DR10 -6.34 dB -22.56 dB 3:28 10-Hang on
DR10 -6.88 dB -21.28 dB 3:33 11-Hallelujah
--------------------------------------------------------------------------------
Number of tracks: 11
Official DR value: DR11
Samplerate: 88200 Hz
Channels: 2
Bits per sample: 24
Bitrate: 5645 kbps
Codec: DSD64
================================================================================
Источник (релизер): http://rutracker.org/forum/viewtopic.php?t=5382506
Приватный:
Нет (DHT включён)
Размер:
1.70 Гб (1,828,277,154 байт) » файлов: 6
Участники:
0 раздают, 0 качают (0 участников всего)
Внешние участники:
9 раздают, 3 качают (12 участников всего) [ Обновить ]
Никого нет на раздаче - пишите ЛС M0p94ok
No seeders - write PM to M0p94ok
20:48
44
Нет комментариев. Ваш будет первым!