Поиск

[SACD-R][DSD OF] Fiona Joy - Signature - Solo - 2014 (Blue Coast Records) (Piano Jazz, Modern Classical, New Age)

[SACD-R][DSD OF] Fiona Joy - Signature - Solo - 2014 (Blue Coast Records) (Piano Jazz, Modern Classical, New Age)
Битрейт аудио:
lossless
Треклист:
Fiona Joy / Signature - Solo
Формат записи/Источник записи: [SACD-R][DSD OF]
Жанр: Piano Jazz, Modern Classical, New Age
Год выпуска диска: 2014
Издатель (лейбл): Blue Coast Records
Разрядность: 64(2,8 MHz/1 Bit)
Аудиокодек: DSD
Количество каналов: 2.0
Продолжительность: 00:40:40
Тип рипа: image (ISO)
Контейнер: ISO (*.iso)
Наличие водяных знаков: Нет
Наличие сканов в содержимом раздачи: Буклет PDF
Треклист:
01.Ceremony 3:37
02.Grace 5:44
03.Fair Not 4:01
04.Once Upon Impossible (Solo Piano) 3:28
05.Calling Earth 3:50
06.Invisible Train 3:28
07.Signature 2:39
08.Once Upon Impossible (Duet) 4:22
09.From The Mist 4:56
10.Little Star 4:36
Источник:https://bluecoastrecords.downloadsnow.net/fiona-joy-signature-solo
Доп. информация: Запись на DVD - 4,7 программой ImgBurn.
На усилке 2.0 чистый класс A звучит кристально чисто!!
 
Лог проверки качества: 2.0 - DR14
foobar2000 1.1.10 / Dynamic Range Meter 1.1.1
log date: 2018-09-14 14:50:01
--------------------------------------------------------------------------------
Analyzed: Fiona Joy / Signature - Solo
--------------------------------------------------------------------------------
DR Peak RMS Duration Track
--------------------------------------------------------------------------------
DR12 -7.25 dB -23.55 dB 3:37 01-Ceremony
DR14 -5.51 dB -25.38 dB 5:44 02-Grace
DR15 -3.67 dB -24.46 dB 4:01 03-Fair Not
DR12 -8.38 dB -27.14 dB 3:28 04-Once Upon Impossible (Solo Piano)
DR13 -6.14 dB -25.05 dB 3:50 05-Calling Earth
DR13 -4.09 dB -21.68 dB 3:28 06-Invisible Train
DR15 -7.62 dB -29.27 dB 2:39 07-Signature
DR11 -8.25 dB -25.83 dB 4:22 08-Once Upon Impossible (Duet)
DR15 -8.13 dB -28.09 dB 4:56 09-From The Mist
DR15 -6.60 dB -28.22 dB 4:36 10-Little Star
--------------------------------------------------------------------------------
Number of tracks: 10
Official DR value: DR14
Samplerate: 2822400 Hz / PCM Samplerate: 88200 Hz
Channels: 2
Bits per sample: 24
Bitrate: 5645 kbps
Codec: DSD64
================================================================================
Приватный:
Нет (DHT включён)
Размер:
1.64 Гб (1,765,108,162 байт) » файлов: 5
Участники:
0 раздают, 0 качают (0 участников всего)
Внешние участники:
9 раздают, 3 качают (12 участников всего) [ Обновить ]
Никого нет на раздаче - пишите ЛС M0p94ok
No seeders - write PM to M0p94ok
20:55
40
Нет комментариев. Ваш будет первым!