Поиск

[SACD-R][DSD OF] Bob James trio - Espresso - 2018 (evosound)(Jazz)

[SACD-R][DSD OF] Bob James trio - Espresso - 2018 (evosound)(Jazz)
Битрейт аудио:
lossless
Треклист:
Bob James trio / Espresso
Формат записи/Источник записи: [SACD-R][DSD OF]
Жанр: Jazz
Год выпуска диска: 2018
Издатель (лейбл): evosound
Разрядность: 64(2,8 MHz/1 Bit)
Аудиокодек: DSD
Количество каналов: 2.0
Продолжительность: 00:58:39
Тип рипа: image (ISO)
Контейнер: ISO (*.iso)
Наличие водяных знаков: Нет
Наличие сканов в содержимом раздачи: Только обложка альбома
Треклист:
01 - Bulgogi (6:04)
02 - Shadow Dance (7:05)
03 - Ain't Misbehavin' (5:32)
04 - One Afternoon (3:32)
05 - Mister Magic (6:17)
06 - Topside (5:07)
07 - Il Boccalone (4:01)
08 - Mojito Ride (7:38)
09 - Promenade (4:14)
10 - Boss Lady (4:43)
11 - Submarine (4:27)
Источник:http://www.hdtracks.com/espresso?format=FLAC
Исходник:http://rutracker.org/forum/viewtopic.php?t=5614168
Доп. информация: Запись на DVD - 4,7 программой ImgBurn.
На усилке 2.0 чистый класс A звучит кристально чисто!!
 
Лог проверки качества: 2.0 - DR13
foobar2000 1.1.10 / Dynamic Range Meter 1.1.1
log date: 2018-09-24 16:35:47
--------------------------------------------------------------------------------
Analyzed: Bob James / Espresso
--------------------------------------------------------------------------------
DR Peak RMS Duration Track
--------------------------------------------------------------------------------
DR13 -8.06 dB -23.31 dB 6:04 01-Bulgogi
DR13 -8.28 dB -24.88 dB 7:05 02-Shadow Dance
DR14 -8.46 dB -24.93 dB 5:32 03-Ain't Misbehavin'
DR13 -9.07 dB -26.21 dB 3:32 04-One Afternoon
DR13 -7.83 dB -24.00 dB 6:17 05-Mister Magic
DR13 -7.82 dB -23.51 dB 5:07 06-Topside
DR13 -9.35 dB -25.36 dB 4:01 07-Il Boccalone
DR14 -7.85 dB -24.99 dB 7:38 08-Mojito Ride
DR11 -11.55 dB -25.24 dB 4:14 09-Promenade
DR12 -7.70 dB -21.59 dB 4:43 10-Boss Lady
DR13 -7.78 dB -23.14 dB 4:27 11-Submarine
--------------------------------------------------------------------------------
Number of tracks: 11
Official DR value: DR13
Samplerate: 2822400 Hz / PCM Samplerate: 88200 Hz
Channels: 2
Bits per sample: 24
Bitrate: 5645 kbps
Codec: DSD64
================================================================================
Приватный:
Нет (DHT включён)
Размер:
2.36 Гб (2,531,314,972 байт) » файлов: 4
Участники:
2 раздают, 1 качают (3 участников всего)
Внешние участники:
14 раздают, 4 качают (18 участников всего) [ Обновить ]
Нет сидеров - пишите личное сообщение M0p94ok. Не нравятся торренты? Участники группы Pro-jazz Club могут заказать прямую ссылку на скачивание из облака.
No seeders - write a personal message to M0p94ok. Don't like torrents? Members of Pro-jazz Club group can order a direct download link from the cloud.
20:56
111
Нет комментариев. Ваш будет первым!