Вы используете незарегистрированную версию компонента "Вкладки"!

Поиск

(RIO / Avant-Prog/Jazz) [CD] Ron Anderson - Secret Curve - 2011, FLAC (tracks+.cue), lossless

(RIO / Avant-Prog/Jazz) [CD] Ron Anderson - Secret Curve - 2011, FLAC (tracks+.cue), lossless
Треклист:
Ron Anderson / Secret Curve
Жанр: RIO / Avant-Prog/Jazz
Носитель: CD
Страна-производитель диска: USA
Год издания: 2011
Издатель (лейбл): Tzadik
Номер по каталогу: TZ 8079
Страна исполнителя (группы): USA
Аудиокодек: FLAC (*.flac)
Тип рипа: tracks+.cue
Битрейт аудио: lossless
Продолжительность: 46:17 min
Источник (релизер): Stephane Roberts
Наличие сканов в содержимом раздачи:
Я под большим впечатлением от данного релиза! С тапочек выносит с первых же аккордов! До селе я слышал не много альбомов Андерсона, но они больше были направлены в джаз, а то и авангард в котором очень трудно найти концы, но тут все по другому. Я конечно не скидываю шизогутость музыкантов ... но она точно другая
Треклист:
1. Overture. 1:08
2. Let Me Tell You Something. 6:28
3: Caffeine Static Rendezvous. 3:24
4. No Future. 2:30
5. Caro-Kann. 9:39
6. Secret Curve. 6:12
7. Mama's Little Anarchist. 1:05
8. E4 or D4? 2:59
9. Trebuchet. 4:58
10. Blinding Light. 2:33
11: Kempelen's Automaton. 5:17
 
Лог создания рипа
Exact Audio Copy V1.0 beta 3 from 29. August 2011
EAC extraction logfile from 27. October 2014, 1:35
Ron Anderson / Secret Curve
Used drive : ATAPI iHAS124 E Adapter: 0 ID: 0
Read mode : Secure
Utilize accurate stream : Yes
Defeat audio cache : Yes
Make use of C2 pointers : No
Read offset correction : 6
Overread into Lead-In and Lead-Out : No
Fill up missing offset samples with silence : Yes
Delete leading and trailing silent blocks : No
Null samples used in CRC calculations : Yes
Used interface : Native Win32 interface for Win NT & 2000
Gap handling : Appended to previous track
Used output format : Internal WAV Routines
Sample format : 44.100 Hz; 16 Bit; Stereo
TOC of the extracted CD
Track | Start | Length | Start sector | End sector
---------------------------------------------------------
1 | 0:02.00 | 1:10.27 | 150 | 5426
2 | 1:12.27 | 6:30.60 | 5427 | 34736
3 | 7:43.12 | 3:26.01 | 34737 | 50187
4 | 11:09.13 | 2:32.01 | 50188 | 61588
5 | 13:41.14 | 9:41.64 | 61589 | 105227
6 | 23:23.03 | 6:14.34 | 105228 | 133311
7 | 29:37.37 | 1:07.12 | 133312 | 138348
8 | 30:44.49 | 3:01.44 | 138349 | 151967
9 | 33:46.18 | 5:00.01 | 151968 | 174468
10 | 38:46.19 | 2:35.40 | 174469 | 186133
11 | 41:21.59 | 5:17.18 | 186134 | 209926
Track 1
Filename C:\_EAC\01 Overture.wav
Pre-gap length 0:00:04.00
Peak level 96.6 %
Extraction speed 0.6 X
Track quality 99.8 %
Test CRC BF32D3EB
Copy CRC BF32D3EB
Track not present in AccurateRip database
Copy OK
Track 2
Filename C:\_EAC\02 Let Me Tell You Something.wav
Pre-gap length 0:00:02.00
Peak level 96.6 %
Extraction speed 1.3 X
Track quality 100.0 %
Test CRC 2540C948
Copy CRC 2540C948
Track not present in AccurateRip database
Copy OK
Track 3
Filename C:\_EAC\03 Caffeine Static Rendezvous.wav
Pre-gap length 0:00:02.00
Peak level 96.6 %
Extraction speed 1.3 X
Track quality 100.0 %
Test CRC F7A11D87
Copy CRC F7A11D87
Track not present in AccurateRip database
Copy OK
Track 4
Filename C:\_EAC\04 No Future.wav
Pre-gap length 0:00:02.00
Peak level 96.6 %
Extraction speed 1.3 X
Track quality 100.0 %
Test CRC 4E647773
Copy CRC 4E647773
Track not present in AccurateRip database
Copy OK
Track 5
Filename C:\_EAC\05 Caro-Kann.wav
Pre-gap length 0:00:02.00
Peak level 96.6 %
Extraction speed 1.7 X
Track quality 100.0 %
Test CRC DD50670F
Copy CRC DD50670F
Track not present in AccurateRip database
Copy OK
Track 6
Filename C:\_EAC\06 Secret Curve.wav
Pre-gap length 0:00:02.00
Peak level 96.6 %
Extraction speed 1.7 X
Track quality 99.9 %
Test CRC D165492D
Copy CRC D165492D
Track not present in AccurateRip database
Copy OK
Track 7
Filename C:\_EAC\07 Mama's Little Anarchist.wav
Pre-gap length 0:00:02.00
Peak level 96.6 %
Extraction speed 1.3 X
Track quality 100.0 %
Test CRC 64E9CC3E
Copy CRC 64E9CC3E
Track not present in AccurateRip database
Copy OK
Track 8
Filename C:\_EAC\08 E4 or D4.wav
Pre-gap length 0:00:02.00
Peak level 96.6 %
Extraction speed 1.5 X
Track quality 99.9 %
Test CRC 02DEBFEC
Copy CRC 02DEBFEC
Track not present in AccurateRip database
Copy OK
Track 9
Filename C:\_EAC\09 Trebuchet.wav
Pre-gap length 0:00:02.00
Peak level 96.6 %
Extraction speed 2.0 X
Track quality 100.0 %
Test CRC 93EC2D4C
Copy CRC 93EC2D4C
Track not present in AccurateRip database
Copy OK
Track 10
Filename C:\_EAC\10 Blinding Light.wav
Pre-gap length 0:00:02.00
Peak level 96.6 %
Extraction speed 1.8 X
Track quality 100.0 %
Test CRC AA78282D
Copy CRC AA78282D
Track not present in AccurateRip database
Copy OK
Track 11
Filename C:\_EAC\11 Kempelen's Automaton.wav
Pre-gap length 0:00:02.00
Peak level 96.6 %
Extraction speed 2.1 X
Track quality 100.0 %
Test CRC C0775C0D
Copy CRC C0775C0D
Track not present in AccurateRip database
Copy OK
None of the tracks are present in the AccurateRip database
No errors occurred
End of status report
 
Содержание индексной карты (.CUE)
REM GENRE "RIO / Avant-Prog"
REM DATE 2011
REM DISCID 9A0AED0B
REM COMMENT "ExactAudioCopy v1.0b3"
PERFORMER "Ron Anderson"
TITLE "Secret Curve"
FILE "01 Overture.wav" WAVE
TRACK 01 AUDIO
TITLE "Overture"
PERFORMER "Ron Anderson"
PREGAP 00:02:00
INDEX 01 00:00:00
TRACK 02 AUDIO
TITLE "Let Me Tell You Something"
PERFORMER "Ron Anderson"
INDEX 00 01:08:27
FILE "02 Let Me Tell You Something.wav" WAVE
INDEX 01 00:00:00
TRACK 03 AUDIO
TITLE "Caffeine Static Rendezvous"
PERFORMER "Ron Anderson"
INDEX 00 06:28:60
FILE "03 Caffeine Static Rendezvous.wav" WAVE
INDEX 01 00:00:00
TRACK 04 AUDIO
TITLE "No Future"
PERFORMER "Ron Anderson"
INDEX 00 03:24:01
FILE "04 No Future.wav" WAVE
INDEX 01 00:00:00
TRACK 05 AUDIO
TITLE "Caro-Kann"
PERFORMER "Ron Anderson"
INDEX 00 02:30:01
FILE "05 Caro-Kann.wav" WAVE
INDEX 01 00:00:00
TRACK 06 AUDIO
TITLE "Secret Curve"
PERFORMER "Ron Anderson"
INDEX 00 09:39:64
FILE "06 Secret Curve.wav" WAVE
INDEX 01 00:00:00
TRACK 07 AUDIO
TITLE "Mama's Little Anarchist"
PERFORMER "Ron Anderson"
INDEX 00 06:12:34
FILE "07 Mama's Little Anarchist.wav" WAVE
INDEX 01 00:00:00
TRACK 08 AUDIO
TITLE "E4 or D4"
PERFORMER "Ron Anderson"
INDEX 00 01:05:12
FILE "08 E4 or D4.wav" WAVE
INDEX 01 00:00:00
TRACK 09 AUDIO
TITLE "Trebuchet"
PERFORMER "Ron Anderson"
INDEX 00 02:59:44
FILE "09 Trebuchet.wav" WAVE
INDEX 01 00:00:00
TRACK 10 AUDIO
TITLE "Blinding Light"
PERFORMER "Ron Anderson"
INDEX 00 04:58:01
FILE "10 Blinding Light.wav" WAVE
INDEX 01 00:00:00
TRACK 11 AUDIO
TITLE "Kempelen's Automaton"
PERFORMER "Ron Anderson"
INDEX 00 02:33:40
FILE "11 Kempelen's Automaton.wav" WAVE
INDEX 01 00:00:00
 
Лог проверки качества
-----------------------
DON'T MODIFY THIS FILE
-----------------------
PERFORMER: auCDtect Task Manager, ver. 1.6.0 RC1 build 1.6.0.1
Copyright (c) 2008-2010 y-soft. All rights reserved
http://y-soft.org
ANALYZER: auCDtect: CD records authenticity detector, version 0.8.2
Copyright (c) 2004 Oleg Berngardt. All rights reserved.
Copyright (c) 2004 Alexander Djourik. All rights reserved.
FILE: 01 Overture.flac
Size: 8237651 Hash: 602EB72CC2A0AC6C0CD8DBDD457651C7 Accuracy: -m0
Conclusion: CDDA 99%
Signature: EF46F4B495A4FBB3203FEBBDB505A88D89F49158
FILE: 02 Let Me Tell You Something.flac
Size: 46128915 Hash: FDE1192C8827E328E67EFB5276E2982A Accuracy: -m0
Conclusion: CDDA 100%
Signature: 0672358BD6735EEC22603FB86AB09CCA311E16B3
FILE: 03 Caffeine Static Rendezvous.flac
Size: 23577420 Hash: 9A8D08B66364CD82D2B59748057F34FB Accuracy: -m0
Conclusion: CDDA 100%
Signature: 496361B6E1B1D1233402CCA26921F3E978A47E71
FILE: 04 No Future.flac
Size: 18228847 Hash: BB3F1C3F31CC3138824D655870C60122 Accuracy: -m0
Conclusion: MPEG 95%
Signature: F5B51522FA7D6BDFD359BD1BBAB3B89AAE0341A8
FILE: 05 Caro-Kann.flac
Size: 65464504 Hash: C255353F401313006541E27123100255 Accuracy: -m0
Conclusion: CDDA 100%
Signature: 40989E61741E740321183F384288A7BFD80E3D98
FILE: 06 Secret Curve.flac
Size: 40787728 Hash: 8105996F24F8C34207CAA47C0F73BD1D Accuracy: -m0
Conclusion: CDDA 100%
Signature: 6BE5727A94588D4F013FBBB1597C6B38D01DFAAD
FILE: 07 Mama's Little Anarchist.flac
Size: 6904249 Hash: 663D7F63B31953B62AB10981264F28CA Accuracy: -m0
Conclusion: CDDA 100%
Signature: E88623155BE8B024A5EE65250DF29EF484FDF76E
FILE: 08 E4 or D4.flac
Size: 20467351 Hash: 0C68CB8C87820CD322FAB406E841E62C Accuracy: -m0
Conclusion: CDDA 100%
Signature: C9542AE70C54CB31E7172583CD3E185901B4DEE2
FILE: 09 Trebuchet.flac
Size: 35953864 Hash: 7CBFD0B97CCD96437C25019727A01B5E Accuracy: -m0
Conclusion: MPEG 95%
Signature: BD567DFB70A7086C7731FBB11E22299A5105FCB6
FILE: 10 Blinding Light.flac
Size: 19497800 Hash: FE5DBAD2EADA7D7821975C44154D8F28 Accuracy: -m0
Conclusion: CDDA 100%
Signature: BD1375099BE09C4D9147D26CA4EF62C8BF46CA80
FILE: 11 Kempelen's Automaton.flac
Size: 36289551 Hash: 7E62FE708737C2D53897A2DE022B2005 Accuracy: -m0
Conclusion: CDDA 99%
Signature: CCA90CC17906ACB81D977B45B2ADA94A76159365
 
Состав
Ron Anderson: bass, guitar
Keith Abrams: drums, percussion
Tim Byrnes: trumpet, french horn, keyboards
with guests:
Anthony Coleman: piano (track 3)
Jerome Noetinger: electronics, tape manipulation (tracks 2, 5, 8)
Eve Risser: piano, prepared piano (tracks 2, 5, 6, 9)
Tom Swafford: violin (tracks 2, 5, 10)
Stefan Zeniuk: clarinet, bass clarinet, tenor saxophone, bass saxophone, english horn (tracks 1, 4, 11)
По всем вопросам пишите личное сообщение пользователю M0p94ok.
05:34
188
Нет комментариев. Ваш будет первым!