Вы используете незарегистрированную версию компонента "Вкладки"!

Поиск

(Modern Creative, Progressive Jazz) [CD] Phronesis - Organic Warfare - 2007, FLAC (tracks+.cue), lossless

(Modern Creative, Progressive Jazz) [CD] Phronesis - Organic Warfare - 2007, FLAC (tracks+.cue), lossless
Треклист:
Phronesis - Organic Warfare
Жанр: Modern Creative, Progressive Jazz
Носитель: CD
Год издания: 2007
Издатель (лейбл): Loop Records
Номер по каталогу: LOOP 1003
Аудиокодек: FLAC (*.flac)
Тип рипа: tracks+.cue
Битрейт аудио: lossless
Продолжительность: 54:46
Rip by ruskaval
Наличие сканов в содержимом раздачи: да
Треклист:
01. Untitled#1 (2:17)
02. Organic Warfare (3:11)
03. French (4:18)
04. Melody (4:55)
05. Smoking The Camel (6:37)
06. Seven For Samba (5:14)
07. Three Bar Loop (4:53)
08. Mournful (5:02)
09. '4 Now' (6:36)
10. Untitled#2 (5:44)
11. Naive Tune (6:01)
Personnel:
Jasper Høiby - b
Magnus Hjorth - p
Anton Eger - d
 
 
Лог создания рипа
Exact Audio Copy V1.0 beta 3 from 29. August 2011
EAC extraction logfile from 13. October 2014, 7:48
Phronesis / Organic Warfare
Used drive : ATAPI iHAS124 B Adapter: 2 ID: 1
Read mode : Secure
Utilize accurate stream : Yes
Defeat audio cache : Yes
Make use of C2 pointers : No
Read offset correction : 6
Overread into Lead-In and Lead-Out : No
Fill up missing offset samples with silence : Yes
Delete leading and trailing silent blocks : No
Null samples used in CRC calculations : Yes
Used interface : Native Win32 interface for Win NT & 2000
Gap handling : Appended to previous track
Used output format : User Defined Encoder
Selected bitrate : 1024 kBit/s
Quality : High
Add ID3 tag : No
Command line compressor : C:\Program Files (x86)\FLAC Frontend\tools\flac.exe
Additional command line options : -8 -V -T "ARTIST=%artist%" -T "TITLE=%title%" -T "ALBUM=%albumtitle%" -T "DATE=%year%" -T "TRACKNUMBER=%tracknr%" -T "TOTALTRACKS=%numtracks%" -T "GENRE=%genre%" -T "ALBUMARTIST=%albumartist%" -T "ALBUM ARTIST=%albumartist%" -T "COMMENT=EAC Secure Mode, Test & Copy, AccurateRip, FLAC -8" %source%
TOC of the extracted CD
Track | Start | Length | Start sector | End sector
---------------------------------------------------------
1 | 0:00.00 | 2:16.47 | 0 | 10246
2 | 2:16.47 | 3:10.40 | 10247 | 24536
3 | 5:27.12 | 4:18.14 | 24537 | 43900
4 | 9:45.26 | 4:55.07 | 43901 | 66032
5 | 14:40.33 | 6:36.67 | 66033 | 95799
6 | 21:17.25 | 5:14.01 | 95800 | 119350
7 | 26:31.26 | 4:52.41 | 119351 | 141291
8 | 31:23.67 | 5:01.40 | 141292 | 163906
9 | 36:25.32 | 6:36.05 | 163907 | 193611
10 | 43:01.37 | 5:43.53 | 193612 | 219389
11 | 48:45.15 | 6:00.61 | 219390 | 246450
Track 1
Filename C:\Phronesis - Organic Warfare (2007) {Loop Records}\01 - Untitled#1.wav
Pre-gap length 0:00:02.00
Peak level 93.3 %
Extraction speed 3.1 X
Track quality 100.0 %
Test CRC F912E64C
Copy CRC F912E64C
Accurately ripped (confidence 4) [06CCE185] (AR v1)
Copy OK
Track 2
Filename C:\Phronesis - Organic Warfare (2007) {Loop Records}\02 - Organic Warfare.wav
Peak level 99.5 %
Extraction speed 2.8 X
Track quality 99.9 %
Test CRC AC523F53
Copy CRC AC523F53
Accurately ripped (confidence 4) [9EB8DBA6] (AR v1)
Copy OK
Track 3
Filename C:\Phronesis - Organic Warfare (2007) {Loop Records}\03 - French.wav
Peak level 98.8 %
Extraction speed 4.2 X
Track quality 100.0 %
Test CRC EE06CE44
Copy CRC EE06CE44
Accurately ripped (confidence 4) [ACDE36EE] (AR v1)
Copy OK
Track 4
Filename C:\Phronesis - Organic Warfare (2007) {Loop Records}\04 - Melody.wav
Peak level 98.8 %
Extraction speed 4.6 X
Track quality 100.0 %
Test CRC 178C1AE1
Copy CRC 178C1AE1
Accurately ripped (confidence 4) [3E605688] (AR v1)
Copy OK
Track 5
Filename C:\Phronesis - Organic Warfare (2007) {Loop Records}\05 - Smoking The Camel.wav
Peak level 98.8 %
Extraction speed 5.2 X
Track quality 100.0 %
Test CRC F80454C3
Copy CRC F80454C3
Accurately ripped (confidence 4) [DC730A81] (AR v1)
Copy OK
Track 6
Filename C:\Phronesis - Organic Warfare (2007) {Loop Records}\06 - Seven For Samba.wav
Peak level 98.8 %
Extraction speed 5.5 X
Track quality 100.0 %
Test CRC 782CC855
Copy CRC 782CC855
Accurately ripped (confidence 4) [3102A936] (AR v1)
Copy OK
Track 7
Filename C:\Phronesis - Organic Warfare (2007) {Loop Records}\07 - Three Bar Loop.wav
Peak level 98.8 %
Extraction speed 5.8 X
Track quality 100.0 %
Test CRC 5DD8495A
Copy CRC 5DD8495A
Accurately ripped (confidence 4) [1DEA9494] (AR v1)
Copy OK
Track 8
Filename C:\Phronesis - Organic Warfare (2007) {Loop Records}\08 - Mournful.wav
Peak level 98.8 %
Extraction speed 6.1 X
Track quality 100.0 %
Test CRC D4986476
Copy CRC D4986476
Accurately ripped (confidence 4) [02AEDA52] (AR v1)
Copy OK
Track 9
Filename C:\Phronesis - Organic Warfare (2007) {Loop Records}\09 - '4 Now'.wav
Peak level 98.8 %
Extraction speed 5.7 X
Track quality 99.9 %
Test CRC 237CFC16
Copy CRC 237CFC16
Accurately ripped (confidence 4) [D4340593] (AR v1)
Copy OK
Track 10
Filename C:\Phronesis - Organic Warfare (2007) {Loop Records}\10 - Untitled#2.wav
Peak level 98.8 %
Extraction speed 6.9 X
Track quality 100.0 %
Test CRC CD8DBF17
Copy CRC CD8DBF17
Accurately ripped (confidence 4) [C7D69074] (AR v1)
Copy OK
Track 11
Filename C:\Phronesis - Organic Warfare (2007) {Loop Records}\11 - Naive Tune.wav
Peak level 98.8 %
Extraction speed 7.3 X
Track quality 100.0 %
Test CRC 924C3689
Copy CRC 924C3689
Accurately ripped (confidence 4) [76D158D7] (AR v1)
Copy OK
All tracks accurately ripped
No errors occurred
End of status report
==== Log checksum 7D060C7AB9CB96939A9CF78B955A6514D725EDFDCBCE45D0CF006856E4936C11 ====
 
Содержание индексной карты (.CUE)
REM GENRE Jazz
REM DATE 2007
REM DISCID B50CD60B
REM COMMENT "ExactAudioCopy v1.0b3"
PERFORMER "Phronesis"
TITLE "Organic Warfare"
FILE "01 - Untitled#1.wav" WAVE
TRACK 01 AUDIO
TITLE "Untitled#1"
PERFORMER "Phronesis"
INDEX 01 00:00:00
FILE "02 - Organic Warfare.wav" WAVE
TRACK 02 AUDIO
TITLE "Organic Warfare"
PERFORMER "Phronesis"
INDEX 01 00:00:00
FILE "03 - French.wav" WAVE
TRACK 03 AUDIO
TITLE "French"
PERFORMER "Phronesis"
INDEX 01 00:00:00
FILE "04 - Melody.wav" WAVE
TRACK 04 AUDIO
TITLE "Melody"
PERFORMER "Phronesis"
INDEX 01 00:00:00
FILE "05 - Smoking The Camel.wav" WAVE
TRACK 05 AUDIO
TITLE "Smoking The Camel"
PERFORMER "Phronesis"
INDEX 01 00:00:00
FILE "06 - Seven For Samba.wav" WAVE
TRACK 06 AUDIO
TITLE "Seven For Samba"
PERFORMER "Phronesis"
INDEX 01 00:00:00
FILE "07 - Three Bar Loop.wav" WAVE
TRACK 07 AUDIO
TITLE "Three Bar Loop"
PERFORMER "Phronesis"
INDEX 01 00:00:00
FILE "08 - Mournful.wav" WAVE
TRACK 08 AUDIO
TITLE "Mournful"
PERFORMER "Phronesis"
INDEX 01 00:00:00
FILE "09 - '4 Now'.wav" WAVE
TRACK 09 AUDIO
TITLE "'4 Now'"
PERFORMER "Phronesis"
INDEX 01 00:00:00
FILE "10 - Untitled#2.wav" WAVE
TRACK 10 AUDIO
TITLE "Untitled#2"
PERFORMER "Phronesis"
INDEX 01 00:00:00
FILE "11 - Naive Tune.wav" WAVE
TRACK 11 AUDIO
TITLE "Naive Tune"
PERFORMER "Phronesis"
INDEX 01 00:00:00
По всем вопросам пишите личное сообщение пользователю M0p94ok.
05:33
183
Нет комментариев. Ваш будет первым!