Вы используете незарегистрированную версию компонента "Вкладки"!

Поиск

(Avant-Garde, Free Improvisation, Tzadik) [CD] Wadada Leo Smith, George Lewis, John Zorn - Sonic Rivers - 2014, FLAC (tracks+.cue), lossless

Треклист:
Wadada Leo Smith, George Lewis, John Zorn / Sonic Rivers
Жанр: Avant-Garde, Free Improvisation, Tzadik
Носитель: CD
Страна-производитель диска: U.S.A.
Год издания: 2014
Издатель (лейбл): Tzadik
Номер по каталогу: TZ 4001
Аудиокодек: FLAC (*.flac)
Тип рипа: tracks+.cue
Битрейт аудио: lossless
Продолжительность: 45:21
Источник (релизер): IsraBox / sddd
Наличие сканов в содержимом раздачи: нет
Треклист:
1. Cecil Taylor (Wadada Leo Smith) 8:57
2. The Art of Counterpoint 3:50
3. North 7:14
4. South 5:44
5. East 4:06
6. West 3:56
7. Screaming Grass 5:50
8. The Culture of Gun Violence in the US (Wadada Leo Smith) 5:43
All tracks composed by Smith / Lewis / Zorn except where indicated.
Recorded at EastSide Sound in New York City on December 17, 2013.
Wadada Leo Smith – Trumpet
George Lewis – Trombone, Electronics
John Zorn – Alto Saxophone
 
Лог создания рипа
X Lossless Decoder version 20131102 (145.0)
XLD extraction logfile from 2014-08-14 10:36:06 -0500
John Zorn / Sonic Rivers
Used drive : OPTIARC DVD RW AD-5630A (revision 1AHM)
Media type : Pressed CD
Ripper mode : XLD Secure Ripper
Disable audio cache : OK for the drive with a cache less than 1375KiB
Make use of C2 pointers : NO
Read offset correction : 48
Max retry count : 100
Gap status : Analyzed, Appended (except HTOA)
TOC of the extracted CD
Track | Start | Length | Start sector | End sector
---------------------------------------------------------
1 | 00:00:00 | 08:57:34 | 0 | 40308
2 | 08:57:34 | 03:50:19 | 40309 | 57577
3 | 12:47:53 | 07:14:14 | 57578 | 90141
4 | 20:01:67 | 05:44:35 | 90142 | 115976
5 | 25:46:27 | 04:05:57 | 115977 | 134408
6 | 29:52:09 | 03:55:62 | 134409 | 152095
7 | 33:47:71 | 05:49:53 | 152096 | 178323
8 | 39:37:49 | 05:43:30 | 178324 | 204078
AccurateRip Summary
Disc not found in AccurateRip DB.
All Tracks
Album gain : -6.66 dB
Peak : 1.000000
Statistics
Read error : 0
Jitter error (maybe fixed) : 0
Retry sector count : 0
Damaged sector count : 0
Track 01
Filename : /Volumes/The Friendly Giant/FLAC Music/John Zorn - Sonic Rivers (2014) [FLAC]/01 Cecil Taylor.flac
Pre-gap length : 00:02:00
Track gain : -6.90 dB
Peak : 1.000000
CRC32 hash (test run) : 45861F10
CRC32 hash : 45861F10
CRC32 hash (skip zero) : D4553D42
AccurateRip v1 signature : 786A6D9D
AccurateRip v2 signature : D89AD890
->Track not present in AccurateRip database.
Statistics
Read error : 0
Jitter error (maybe fixed) : 0
Retry sector count : 0
Damaged sector count : 0
Track 02
Filename : /Volumes/The Friendly Giant/FLAC Music/John Zorn - Sonic Rivers (2014) [FLAC]/02 The Art of Counterpoint.flac
Track gain : -6.54 dB
Peak : 1.000000
CRC32 hash (test run) : 0E4C5F48
CRC32 hash : 0E4C5F48
CRC32 hash (skip zero) : 2E2C0DFE
AccurateRip v1 signature : 72860162
AccurateRip v2 signature : 9D3FFEEB
->Track not present in AccurateRip database.
Statistics
Read error : 0
Jitter error (maybe fixed) : 0
Retry sector count : 0
Damaged sector count : 0
Track 03
Filename : /Volumes/The Friendly Giant/FLAC Music/John Zorn - Sonic Rivers (2014) [FLAC]/03 North.flac
Track gain : -6.95 dB
Peak : 0.985504
CRC32 hash (test run) : 5155C971
CRC32 hash : 5155C971
CRC32 hash (skip zero) : 062B57CA
AccurateRip v1 signature : EC0D4D2E
AccurateRip v2 signature : 769B86AF
->Track not present in AccurateRip database.
Statistics
Read error : 0
Jitter error (maybe fixed) : 0
Retry sector count : 0
Damaged sector count : 0
Track 04
Filename : /Volumes/The Friendly Giant/FLAC Music/John Zorn - Sonic Rivers (2014) [FLAC]/04 South.flac
Track gain : -5.62 dB
Peak : 0.983826
CRC32 hash (test run) : 0E788278
CRC32 hash : 0E788278
CRC32 hash (skip zero) : F40B081E
AccurateRip v1 signature : 4338D8D2
AccurateRip v2 signature : 9F7D4F99
->Track not present in AccurateRip database.
Statistics
Read error : 0
Jitter error (maybe fixed) : 0
Retry sector count : 0
Damaged sector count : 0
Track 05
Filename : /Volumes/The Friendly Giant/FLAC Music/John Zorn - Sonic Rivers (2014) [FLAC]/05 East.flac
Track gain : -6.43 dB
Peak : 0.987976
CRC32 hash (test run) : 5E0C7051
CRC32 hash : 5E0C7051
CRC32 hash (skip zero) : 9CB0416C
AccurateRip v1 signature : 2D87E059
AccurateRip v2 signature : E33B7C4B
->Track not present in AccurateRip database.
Statistics
Read error : 0
Jitter error (maybe fixed) : 0
Retry sector count : 0
Damaged sector count : 0
Track 06
Filename : /Volumes/The Friendly Giant/FLAC Music/John Zorn - Sonic Rivers (2014) [FLAC]/06 West.flac
Track gain : -7.24 dB
Peak : 0.992554
CRC32 hash (test run) : 3A7E0A14
CRC32 hash : 3A7E0A14
CRC32 hash (skip zero) : 52AE1D4F
AccurateRip v1 signature : 4C108096
AccurateRip v2 signature : 63E79C59
->Track not present in AccurateRip database.
Statistics
Read error : 0
Jitter error (maybe fixed) : 0
Retry sector count : 0
Damaged sector count : 0
Track 07
Filename : /Volumes/The Friendly Giant/FLAC Music/John Zorn - Sonic Rivers (2014) [FLAC]/07 Screaming Grass.flac
Track gain : -6.37 dB
Peak : 0.985596
CRC32 hash (test run) : 9D265BFD
CRC32 hash : 9D265BFD
CRC32 hash (skip zero) : B6811098
AccurateRip v1 signature : 99FD2968
AccurateRip v2 signature : 0BB0B173
->Track not present in AccurateRip database.
Statistics
Read error : 0
Jitter error (maybe fixed) : 0
Retry sector count : 0
Damaged sector count : 0
Track 08
Filename : /Volumes/The Friendly Giant/FLAC Music/John Zorn - Sonic Rivers (2014) [FLAC]/08 The Culture of Gun Violence in the US.flac
Track gain : -6.14 dB
Peak : 0.981598
CRC32 hash (test run) : B07775EA
CRC32 hash : B07775EA
CRC32 hash (skip zero) : 55BDF6A7
AccurateRip v1 signature : 9900F658
AccurateRip v2 signature : D612E0BF
->Track not present in AccurateRip database.
Statistics
Read error : 0
Jitter error (maybe fixed) : 0
Retry sector count : 0
Damaged sector count : 0
No errors occurred
End of status report
-----BEGIN XLD SIGNATURE-----
CEuTVAXtb7GeT3dP6wc3OWJ_tPzD3gTNw7ctuDpp3.HGpLzC2r6fuCVTrIrgW7QKnOaaR6NrBwhKO97uo0ntOA07p_Ij.qKmotJ0Vg0
-----END XLD SIGNATURE-----
 
Содержание индексной карты (.CUE)
TITLE "Sonic Rivers"
PERFORMER "Wadada Leo Smith, George Lewis, John Zorn"
REM GENRE "Jazz"
REM DATE "2014"
REM DISCNUMBER 1
REM TOTALDISCS 1
REM DISCID 780AA108
REM REPLAYGAIN_ALBUM_GAIN -6.66 dB
REM REPLAYGAIN_ALBUM_PEAK 1.000000
FILE "01 - Cecil Taylor.flac" WAVE
TRACK 01 AUDIO
TITLE "Cecil Taylor"
PERFORMER "Wadada Leo Smith, George Lewis, John Zorn"
FLAGS DCP
REM REPLAYGAIN_TRACK_GAIN -6.90 dB
REM REPLAYGAIN_TRACK_PEAK 1.000000
INDEX 01 00:00:00
FILE "02 - The Art of Counterpoint.flac" WAVE
TRACK 02 AUDIO
TITLE "The Art of Counterpoint"
PERFORMER "Wadada Leo Smith, George Lewis, John Zorn"
FLAGS DCP
REM REPLAYGAIN_TRACK_GAIN -6.54 dB
REM REPLAYGAIN_TRACK_PEAK 1.000000
INDEX 01 00:00:00
FILE "03 - North.flac" WAVE
TRACK 03 AUDIO
TITLE "North"
PERFORMER "Wadada Leo Smith, George Lewis, John Zorn"
FLAGS DCP
REM REPLAYGAIN_TRACK_GAIN -6.95 dB
REM REPLAYGAIN_TRACK_PEAK 0.985504
INDEX 01 00:00:00
FILE "04 - South.flac" WAVE
TRACK 04 AUDIO
TITLE "South"
PERFORMER "Wadada Leo Smith, George Lewis, John Zorn"
FLAGS DCP
REM REPLAYGAIN_TRACK_GAIN -5.62 dB
REM REPLAYGAIN_TRACK_PEAK 0.983826
INDEX 01 00:00:00
FILE "05 - East.flac" WAVE
TRACK 05 AUDIO
TITLE "East"
PERFORMER "Wadada Leo Smith, George Lewis, John Zorn"
FLAGS DCP
REM REPLAYGAIN_TRACK_GAIN -6.43 dB
REM REPLAYGAIN_TRACK_PEAK 0.987976
INDEX 01 00:00:00
FILE "06 - West.flac" WAVE
TRACK 06 AUDIO
TITLE "West"
PERFORMER "Wadada Leo Smith, George Lewis, John Zorn"
FLAGS DCP
REM REPLAYGAIN_TRACK_GAIN -7.24 dB
REM REPLAYGAIN_TRACK_PEAK 0.992554
INDEX 01 00:00:00
FILE "07 - Screaming Grass.flac" WAVE
TRACK 07 AUDIO
TITLE "Screaming Grass"
PERFORMER "Wadada Leo Smith, George Lewis, John Zorn"
FLAGS DCP
REM REPLAYGAIN_TRACK_GAIN -6.37 dB
REM REPLAYGAIN_TRACK_PEAK 0.985596
INDEX 01 00:00:00
FILE "08 - The Culture of Gun Violence in the US.flac" WAVE
TRACK 08 AUDIO
TITLE "The Culture of Gun Violence in the US"
PERFORMER "Wadada Leo Smith, George Lewis, John Zorn"
FLAGS DCP
REM REPLAYGAIN_TRACK_GAIN -6.14 dB
REM REPLAYGAIN_TRACK_PEAK 0.981598
INDEX 01 00:00:00
 
fooCDtect
fooCDtect - foobar2000 + auCDtect, baralgin.
auCDtect: CD records authenticity detector, version 0.8.2
Copyright (c) 2004 Oleg Berngardt. All rights reserved.
Copyright (c) 2004 Alexander Djourik. All rights reserved.
mode: 0
===========================================
Track: 01 - Cecil Taylor
Quality: CDDA 100%
===========================================
Track: 02 - The Art of Counterpoint
Quality: CDDA 100%
===========================================
Track: 03 - North
Quality: CDDA 100%
===========================================
Track: 04 - South
Quality: CDDA 100%
===========================================
Track: 05 - East
Quality: CDDA 100%
===========================================
Track: 06 - West
Quality: CDDA 99%
===========================================
Track: 07 - Screaming Grass
Quality: CDDA 100%
===========================================
Track: 08 - The Culture of Gun Violence in the US
Quality: CDDA 100%
===========================================
По всем вопросам пишите личное сообщение пользователю M0p94ok.
05:33
159
Нет комментариев. Ваш будет первым!