Поиск

(Avant-Garde Jazz) [CD] The Ornette Coleman Trio - At The "Golden Circle" Stockholm, Volume One (1965) - 2013 {Japan SHM-CD Blue Note 24-192 Remaster}, FLAC (tracks+.cue), lossless

(Avant-Garde Jazz) [CD] The Ornette Coleman Trio - At The "Golden Circle" Stockholm, Volume One (1965) - 2013 {Japan SHM-CD Blue Note 24-192 Remaster}, FLAC (tracks+.cue), lossless
The Ornette Coleman Trio - At The "Golden Circle" Stockholm, Volume One (1965) Жанр: Avant-Garde Jazz
Носитель: CD
Страна-производитель диска: Japan
Год издания: 2013
Издатель (лейбл): Universal Japan/Blue Note
Номер по каталогу: TYCJ-81037
Аудиокодек: FLAC (*.flac)
Тип рипа: tracks+.cue
Битрейт аудио: lossless
Продолжительность: 01:15:38
Rip by ruskaval
Наличие сканов в содержимом раздачи: да
Треклист:
01. Announcement (1:10)
02. Faces And Places (11:38)
03. European Echoes (7:53)
04. Dee Dee (10:37)
05. Dawn (8:09)
06. Faces And Places (alt. take) (bonus track) (8:39)
07. European Echoes (alt. take) (bonus track) (14:04)
08. Doughnuts (bonus track) (13:29)
Personnel:
Ornette Coleman - as
David Izenzon - b
Charles Moffett - d
Rec.: live at The Golden Circle, Stockholm, December 3 & 4, 1965.
 
 
Лог создания рипа
Exact Audio Copy V1.0 beta 3 from 29. August 2011
EAC extraction logfile from 21. October 2014, 22:07
The Ornette Coleman Trio / At The "Golden Circle" Stockholm Vol. 1
Used drive : ATAPI iHAS124 B Adapter: 2 ID: 1
Read mode : Secure
Utilize accurate stream : Yes
Defeat audio cache : Yes
Make use of C2 pointers : No
Read offset correction : 6
Overread into Lead-In and Lead-Out : No
Fill up missing offset samples with silence : Yes
Delete leading and trailing silent blocks : No
Null samples used in CRC calculations : Yes
Used interface : Native Win32 interface for Win NT & 2000
Gap handling : Appended to previous track
Used output format : User Defined Encoder
Selected bitrate : 1024 kBit/s
Quality : High
Add ID3 tag : No
Command line compressor : C:\Program Files (x86)\FLAC Frontend\tools\flac.exe
Additional command line options : -8 -V -T "ARTIST=%artist%" -T "TITLE=%title%" -T "ALBUM=%albumtitle%" -T "DATE=%year%" -T "TRACKNUMBER=%tracknr%" -T "TOTALTRACKS=%numtracks%" -T "GENRE=%genre%" -T "ALBUMARTIST=%albumartist%" -T "ALBUM ARTIST=%albumartist%" -T "COMMENT=EAC Secure Mode, Test & Copy, AccurateRip, FLAC -8" %source%
TOC of the extracted CD
Track | Start | Length | Start sector | End sector
---------------------------------------------------------
1 | 0:00.00 | 1:09.55 | 0 | 5229
2 | 1:09.55 | 11:38.21 | 5230 | 57600
3 | 12:48.01 | 7:52.50 | 57601 | 93050
4 | 20:40.51 | 10:36.72 | 93051 | 140822
5 | 31:17.48 | 8:08.55 | 140823 | 177477
6 | 39:26.28 | 8:38.40 | 177478 | 216367
7 | 48:04.68 | 14:03.58 | 216368 | 279650
8 | 62:08.51 | 13:28.74 | 279651 | 340324
Track 1
Filename C:\The Ornette Coleman Trio - At The 'Golden Circle' Stockholm Vol. 1 (1965) {2013 Japan SHM-CD Blue Note 24-192 Remaster}\01 - Announcement.wav
Pre-gap length 0:00:02.00
Peak level 96.8 %
Extraction speed 1.7 X
Track quality 99.8 %
Test CRC CD1DA6F4
Copy CRC CD1DA6F4
Accurately ripped (confidence 2) [65172400] (AR v2)
Copy OK
Track 2
Filename C:\The Ornette Coleman Trio - At The 'Golden Circle' Stockholm Vol. 1 (1965) {2013 Japan SHM-CD Blue Note 24-192 Remaster}\02 - Faces And Places.wav
Peak level 100.0 %
Extraction speed 4.8 X
Track quality 100.0 %
Test CRC 64B5A208
Copy CRC 64B5A208
Accurately ripped (confidence 2) [AE5DB7AC] (AR v2)
Copy OK
Track 3
Filename C:\The Ornette Coleman Trio - At The 'Golden Circle' Stockholm Vol. 1 (1965) {2013 Japan SHM-CD Blue Note 24-192 Remaster}\03 - European Echoes.wav
Peak level 97.5 %
Extraction speed 5.5 X
Track quality 100.0 %
Test CRC 2B5F150A
Copy CRC 2B5F150A
Accurately ripped (confidence 2) [8B3F1419] (AR v2)
Copy OK
Track 4
Filename C:\The Ornette Coleman Trio - At The 'Golden Circle' Stockholm Vol. 1 (1965) {2013 Japan SHM-CD Blue Note 24-192 Remaster}\04 - Dee Dee.wav
Peak level 97.3 %
Extraction speed 6.3 X
Track quality 100.0 %
Test CRC 918B47EE
Copy CRC 918B47EE
Accurately ripped (confidence 2) [B8AB0FA2] (AR v2)
Copy OK
Track 5
Filename C:\The Ornette Coleman Trio - At The 'Golden Circle' Stockholm Vol. 1 (1965) {2013 Japan SHM-CD Blue Note 24-192 Remaster}\05 - Dawn.wav
Peak level 97.5 %
Extraction speed 6.8 X
Track quality 100.0 %
Test CRC 4F50DBB0
Copy CRC 4F50DBB0
Accurately ripped (confidence 2) [628D359A] (AR v2)
Copy OK
Track 6
Filename C:\The Ornette Coleman Trio - At The 'Golden Circle' Stockholm Vol. 1 (1965) {2013 Japan SHM-CD Blue Note 24-192 Remaster}\06 - Faces And Places (alt. take) (bonus track).wav
Pre-gap length 0:00:01.72
Peak level 97.2 %
Extraction speed 6.5 X
Track quality 99.9 %
Test CRC 81387520
Copy CRC 81387520
Accurately ripped (confidence 2) [7444E9F9] (AR v2)
Copy OK
Track 7
Filename C:\The Ornette Coleman Trio - At The 'Golden Circle' Stockholm Vol. 1 (1965) {2013 Japan SHM-CD Blue Note 24-192 Remaster}\07 - European Echoes (alt. take) (bonus track).wav
Pre-gap length 0:00:00.33
Peak level 94.5 %
Extraction speed 8.2 X
Track quality 100.0 %
Test CRC 84ADF5D1
Copy CRC 84ADF5D1
Accurately ripped (confidence 2) [CCC1BBC7] (AR v2)
Copy OK
Track 8
Filename C:\The Ornette Coleman Trio - At The 'Golden Circle' Stockholm Vol. 1 (1965) {2013 Japan SHM-CD Blue Note 24-192 Remaster}\08 - Doughnuts (bonus track).wav
Peak level 100.0 %
Extraction speed 8.9 X
Track quality 100.0 %
Test CRC A6C017D5
Copy CRC A6C017D5
Accurately ripped (confidence 2) [6A9560F2] (AR v2)
Copy OK
All tracks accurately ripped
No errors occurred
End of status report
==== Log checksum 4649EBDFC5E4D540961653B77761161515DF530562ACBD4E1AF3DF0294A26AFD ====
 
Содержание индексной карты (.CUE)
REM GENRE Jazz
REM DATE 1965
REM DISCID 7211B908
REM COMMENT "ExactAudioCopy v1.0b3"
PERFORMER "The Ornette Coleman Trio"
TITLE "At The 'Golden Circle' Stockholm Vol. 1"
FILE "01 - Announcement.wav" WAVE
TRACK 01 AUDIO
TITLE "Announcement"
PERFORMER "The Ornette Coleman Trio"
INDEX 01 00:00:00
FILE "02 - Faces And Places.wav" WAVE
TRACK 02 AUDIO
TITLE "Faces And Places"
PERFORMER "The Ornette Coleman Trio"
INDEX 01 00:00:00
FILE "03 - European Echoes.wav" WAVE
TRACK 03 AUDIO
TITLE "European Echoes"
PERFORMER "The Ornette Coleman Trio"
INDEX 01 00:00:00
FILE "04 - Dee Dee.wav" WAVE
TRACK 04 AUDIO
TITLE "Dee Dee"
PERFORMER "The Ornette Coleman Trio"
INDEX 01 00:00:00
FILE "05 - Dawn.wav" WAVE
TRACK 05 AUDIO
TITLE "Dawn"
PERFORMER "The Ornette Coleman Trio"
INDEX 01 00:00:00
TRACK 06 AUDIO
TITLE "Faces And Places (alt. take) (bonus track)"
PERFORMER "The Ornette Coleman Trio"
INDEX 00 08:06:58
FILE "06 - Faces And Places (alt. take) (bonus track).wav" WAVE
INDEX 01 00:00:00
TRACK 07 AUDIO
TITLE "European Echoes (alt. take) (bonus track)"
PERFORMER "The Ornette Coleman Trio"
INDEX 00 08:38:07
FILE "07 - European Echoes (alt. take) (bonus track).wav" WAVE
INDEX 01 00:00:00
FILE "08 - Doughnuts (bonus track).wav" WAVE
TRACK 08 AUDIO
TITLE "Doughnuts (bonus track)"
PERFORMER "The Ornette Coleman Trio"
INDEX 01 00:00:00
05:32
368
Нет комментариев. Ваш будет первым!