Вы используете незарегистрированную версию компонента "Вкладки"!

Поиск

(Avant-Garde Jazz, Free Improvisation) [CD] John Butcher - Resonant Spaces - 2008, FLAC (tracks+.cue), lossless

(Avant-Garde Jazz, Free Improvisation) [CD] John Butcher - Resonant Spaces - 2008, FLAC (tracks+.cue), lossless
Треклист:
John Butcher / Resonant Spaces
Жанр: Avant-Garde Jazz, Free Improvisation
Носитель: CD
Страна-производитель диска: UK
Год издания: 2008
Издатель (лейбл): Confront Records
Номер по каталогу: confront 17
Страна исполнителя (группы): UK
Аудиокодек: FLAC (*.flac)
Тип рипа: tracks+.cue
Битрейт аудио: lossless
Продолжительность: 48:52
Источник (релизер): waffles.fm, closer71
Наличие сканов в содержимом раздачи:
Треклист:
1 Sympathetic Magic (Stone) 7:49
2 Calls From A Rusty Cage 7:28
3 Wind Piece 3:09
4 Floating Cult 6:15
5 Close By, A Waterfall 6:10
6 New Scapa Flow 6:19
7 Styptic 3:24
8 Frost Piece 2:17
9 Sympathetic Magic (Metal) 5:49
 
Лог создания рипа
Exact Audio Copy V0.99 prebeta 4 from 23. January 2008
EAC extraction logfile from 23. December 2008, 15:59
John Butcher / Resonant Spaces
Used drive : PHILIPS DVD+-RW DVD8801 Adapter: 0 ID: 1
Read mode : Secure
Utilize accurate stream : Yes
Defeat audio cache : Yes
Make use of C2 pointers : No
Read offset correction : 618
Overread into Lead-In and Lead-Out : No
Fill up missing offset samples with silence : Yes
Delete leading and trailing silent blocks : No
Null samples used in CRC calculations : Yes
Used interface : Native Win32 interface for Win NT & 2000
Gap handling : Appended to previous track
Used output format : User Defined Encoder
Selected bitrate : 128 kBit/s
Quality : High
Add ID3 tag : Yes
Command line compressor : C:\Program Files\FLAC\flac.exe
Additional command line options : -V -8 -T "artist=%a" -T "title=%t" -T "album=%g" -T "date=%y" -T "tracknumber=%n" -T "genre=%m" %s
TOC of the extracted CD
Track | Start | Length | Start sector | End sector
---------------------------------------------------------
1 | 0:00.00 | 7:50.01 | 0 | 35250
2 | 7:50.01 | 7:29.66 | 35251 | 68991
3 | 15:19.67 | 3:10.65 | 68992 | 83306
4 | 18:30.57 | 6:16.30 | 83307 | 111536
5 | 24:47.12 | 6:11.19 | 111537 | 139380
6 | 30:58.31 | 6:20.29 | 139381 | 167909
7 | 37:18.60 | 3:25.10 | 167910 | 183294
8 | 40:43.70 | 2:18.56 | 183295 | 193700
9 | 43:02.51 | 5:49.17 | 193701 | 219892
Track 1
Filename C:\Documents and Settings\robert\My Documents\!!! ripped\John Butcher - Resonant Spaces (2008) [FLAC] {}\01 - Sympathetic Magic (stone).wav
Pre-gap length 0:00:02.00
Peak level 74.7 %
Track quality 100.0 %
Test CRC 31F29B18
Copy CRC 31F29B18
Track not present in AccurateRip database
Copy OK
Track 2
Filename C:\Documents and Settings\robert\My Documents\!!! ripped\John Butcher - Resonant Spaces (2008) [FLAC] {}\02 - Calls from a Rusty Cage.wav
Peak level 96.6 %
Track quality 100.0 %
Test CRC 05AEAD20
Copy CRC 05AEAD20
Track not present in AccurateRip database
Copy OK
Track 3
Filename C:\Documents and Settings\robert\My Documents\!!! ripped\John Butcher - Resonant Spaces (2008) [FLAC] {}\03 - Wind Piece.wav
Peak level 58.4 %
Track quality 100.0 %
Test CRC 9201469E
Copy CRC 9201469E
Track not present in AccurateRip database
Copy OK
Track 4
Filename C:\Documents and Settings\robert\My Documents\!!! ripped\John Butcher - Resonant Spaces (2008) [FLAC] {}\04 - Floating Cult.wav
Peak level 96.6 %
Track quality 100.0 %
Test CRC BD0CC20E
Copy CRC BD0CC20E
Track not present in AccurateRip database
Copy OK
Track 5
Filename C:\Documents and Settings\robert\My Documents\!!! ripped\John Butcher - Resonant Spaces (2008) [FLAC] {}\05 - Close by, a Waterfall.wav
Peak level 96.6 %
Track quality 99.9 %
Test CRC BEA9C4D2
Copy CRC BEA9C4D2
Track not present in AccurateRip database
Copy OK
Track 6
Filename C:\Documents and Settings\robert\My Documents\!!! ripped\John Butcher - Resonant Spaces (2008) [FLAC] {}\06 - New Scapa Flow.wav
Peak level 96.6 %
Track quality 100.0 %
Test CRC DD6E37DC
Copy CRC DD6E37DC
Track not present in AccurateRip database
Copy OK
Track 7
Filename C:\Documents and Settings\robert\My Documents\!!! ripped\John Butcher - Resonant Spaces (2008) [FLAC] {}\07 - Styptic.wav
Peak level 96.6 %
Track quality 100.0 %
Test CRC EF7FD552
Copy CRC EF7FD552
Track not present in AccurateRip database
Copy OK
Track 8
Filename C:\Documents and Settings\robert\My Documents\!!! ripped\John Butcher - Resonant Spaces (2008) [FLAC] {}\08 - Frost Piece.wav
Peak level 88.8 %
Track quality 100.0 %
Test CRC 294763AE
Copy CRC 294763AE
Track not present in AccurateRip database
Copy OK
Track 9
Filename C:\Documents and Settings\robert\My Documents\!!! ripped\John Butcher - Resonant Spaces (2008) [FLAC] {}\09 - Sympathetic Magic (metal).wav
Peak level 96.6 %
Track quality 100.0 %
Test CRC 71649C34
Copy CRC 71649C34
Track not present in AccurateRip database
Copy OK
None of the tracks are present in the AccurateRip database
No errors occurred
End of status report
 
Содержание индексной карты (.CUE)
REM GENRE Avantgarde
REM DATE 2008
REM DISCID 6F0B7309
REM COMMENT "ExactAudioCopy v0.99pb4"
PERFORMER "John Butcher"
TITLE "Resonant Spaces"
FILE "01 - Sympathetic Magic (stone).wav" WAVE
TRACK 01 AUDIO
TITLE "Sympathetic Magic (stone)"
PERFORMER "John Butcher"
FLAGS DCP
INDEX 01 00:00:00
FILE "02 - Calls from a Rusty Cage.wav" WAVE
TRACK 02 AUDIO
TITLE "Calls from a Rusty Cage"
PERFORMER "John Butcher"
FLAGS DCP
INDEX 01 00:00:00
FILE "03 - Wind Piece.wav" WAVE
TRACK 03 AUDIO
TITLE "Wind Piece"
PERFORMER "John Butcher"
FLAGS DCP
INDEX 01 00:00:00
FILE "04 - Floating Cult.wav" WAVE
TRACK 04 AUDIO
TITLE "Floating Cult"
PERFORMER "John Butcher"
FLAGS DCP
INDEX 01 00:00:00
FILE "05 - Close by, a Waterfall.wav" WAVE
TRACK 05 AUDIO
TITLE "Close by, a Waterfall"
PERFORMER "John Butcher"
FLAGS DCP
INDEX 01 00:00:00
FILE "06 - New Scapa Flow.wav" WAVE
TRACK 06 AUDIO
TITLE "New Scapa Flow"
PERFORMER "John Butcher"
FLAGS DCP
INDEX 01 00:00:00
FILE "07 - Styptic.wav" WAVE
TRACK 07 AUDIO
TITLE "Styptic"
PERFORMER "John Butcher"
FLAGS DCP
INDEX 01 00:00:00
FILE "08 - Frost Piece.wav" WAVE
TRACK 08 AUDIO
TITLE "Frost Piece"
PERFORMER "John Butcher"
FLAGS DCP
INDEX 01 00:00:00
FILE "09 - Sympathetic Magic (metal).wav" WAVE
TRACK 09 AUDIO
TITLE "Sympathetic Magic (metal)"
PERFORMER "John Butcher"
FLAGS DCP
INDEX 01 00:00:00
 
Лог проверки качества
d:\>d:\aucdtect -d/-m0 d:\zzz\*.wav
auCDtect: CD records authenticity detector, version 0.8.2
Copyright (c) 2004 Oleg Berngardt. All rights reserved.
Copyright (c) 2004 Alexander Djourik. All rights reserved.
------------------------------------------------------------
Processing file: [01. Sympathetic Magic (stone).wav]
------------------------------------------------------------
Could not qualify the source of this track.
------------------------------------------------------------
Processing file: [02. Calls from a Rusty Cage.wav]
------------------------------------------------------------
This track looks like CDDA with probability 100%
------------------------------------------------------------
Processing file: [03. Wind Piece.wav]
------------------------------------------------------------
This track looks like CDDA with probability 54%
------------------------------------------------------------
Processing file: [04. Floating Cult.wav]
------------------------------------------------------------
This track looks like CDDA with probability 43%
------------------------------------------------------------
Processing file: [05. Close by, a Waterfall.wav]
------------------------------------------------------------
This track looks like MPEG with probability 93%
------------------------------------------------------------
Processing file: [06. New Scapa Flow.wav]
------------------------------------------------------------
This track looks like CDDA with probability 100%
------------------------------------------------------------
Processing file: [07. Styptic.wav]
------------------------------------------------------------
This track looks like CDDA with probability 100%
------------------------------------------------------------
Processing file: [08. Frost Piece.wav]
------------------------------------------------------------
This track looks like CDDA with probability 100%
------------------------------------------------------------
Processing file: [09. Sympathetic Magic (metal).wav]
------------------------------------------------------------
This track looks like MPEG with probability 100%
------------------------------------------------------------
Final Conclusion:
------------------------------------------------------------
Could not qualify the source of these tracks.
Доп. информация:
 
AAJ Review
A couple of saxophonists once demonstrated how different players get varying sounds from their horns based on their individual physical attributes. They explained that chest cavity, throat, and mouth shape all contribute to defining a musician's particular sound. Saxophonist John Butcher takes that concept one step further playing solo pieces in varying resonant spaces such as a cave, a reservoir, oil tank and a mausoleum.
His Resonant Spaces project with Japanese musician/instrument builder Akio Suzuki (not heard on this disc) can be found at this website. The musicians toured various sites in Scotland and the Orkney Islands, off the north of coast of Scotland, recording in these various spaces.
Presented here are the curious and wonderful sounds Butcher made in response to the varying locales. He explains in the 20-page accompanying booklet that the space often dictated his approach. For instance inside an abandoned World War II oil tank, he plays "New Scapa Flow," blowing a tenor that vibrates everything inside and outside the body. When he takes up his soprano in the same space, accompanied by feedback, he is required to soften his approach, lest he drive listeners into madness. The softness of soprano echoes with a burnished metallic harshness that is tempered through his delivery. Other places—like the ambiance of a waterfall inside of a cave, plus the voices of visitors—are the wash that bathes his bird chirps, whilst the wind sets up his amplified soprano in the outside space of a 2,500 year old stone circle.
A master of extended saxophone technique, Butcher has always taken physical space into the context of his playing be they churches, mountains, or inside his own home. This project recorded in different places, showcases the many textures of Butcher's playing in response to the physical world he is presented. - Mark Corroto, AAJ
 
Состав
Saxophone – John Butcher
Location recordings from Scotland and Orkney, June 2006
По всем вопросам пишите личное сообщение пользователю M0p94ok.
05:35
162
Нет комментариев. Ваш будет первым!