Поиск

(Rhythm & Blues, Soul, Funk) [WEB] Clarence Carter - The Best Of Clarence Carter (Edition Studio Masters) - 2012, FLAC (tracks), lossless

(Rhythm & Blues, Soul, Funk) [WEB] Clarence Carter - The Best Of Clarence Carter (Edition Studio Masters) - 2012, FLAC (tracks), lossless
Треклист:
Clarence Carter / The Best Of Clarence Carter (Edition Studio Masters)
Жанр: Rhythm & Blues, Soul, Funk
Носитель: WEB
Год издания: 2012
Издатель (лейбл): Rhino Atlantic
Страна исполнителя (группы): USA
Аудиокодек: FLAC (*.flac)
Тип рипа: tracks
Битрейт аудио: lossless
Продолжительность: 00:34:47
Источник (релизер): qobuz
Наличие сканов в содержимом раздачи: Front
Треклист:
01. Slippin' Around
02. I Smell A Rat
03. Too Weak To Fight
04. Making Love (At The Dark End Of The Street)
05. Snatching It Back
06. Patches
07. I Can't Leave Your Love Alone
08. Funky Fever
09. Doin' Our Thing
10. The Feeling Is Right
11. Take It Off Him (And Put It On Me)
12. You Can't Miss What You Can't Measure
 
DR Log
foobar2000 1.1.10 / Dynamic Range Meter 1.1.1
log date: 2018-01-03 09:42:02
--------------------------------------------------------------------------------
Analyzed: Clarence Carter / The Best Of Clarence Carter (Edition Studio Masters)
--------------------------------------------------------------------------------
DR Peak RMS Duration Track
--------------------------------------------------------------------------------
DR11 -4.36 dB -18.00 dB 2:34 ?-Slippin' Around
DR14 -1.77 dB -19.52 dB 2:42 ?-I Smell A Rat
DR13 -1.86 dB -18.39 dB 2:18 ?-Too Weak To Fight
DR14 -1.48 dB -19.60 dB 5:08 ?-Making Love (At The Dark End Of The Street)
DR12 -3.98 dB -18.74 dB 2:52 ?-Snatching It Back
DR14 -2.28 dB -20.30 dB 3:13 ?-Patches
DR13 -1.10 dB -17.37 dB 2:33 ?-I Can't Leave Your Love Alone
DR11 -2.94 dB -16.34 dB 2:51 ?-Funky Fever
DR12 -4.43 dB -20.52 dB 2:29 ?-Doin' Our Thing
DR13 -4.20 dB -19.50 dB 2:56 ?-The Feeling Is Right
DR11 -4.53 dB -19.15 dB 2:54 ?-Take It Off Him [And Put It On Me]
DR11 -3.76 dB -17.16 dB 2:17 ?-You Can't Miss What You Can't Measure
--------------------------------------------------------------------------------
Number of tracks: 12
Official DR value: DR12
Samplerate: 44100 Hz
Channels: 2
Bits per sample: 16
Bitrate: 858 kbps
Codec: FLAC
================================================================================
 
Лог проверки качества
-----------------------
DON'T MODIFY THIS FILE
-----------------------
PERFORMER: auCDtect Task Manager, ver. 1.5.1RC4 build 1.5.1.5
Copyright (c) 2008-2010 y-soft. All rights reserved
http://y-soft.org
ANALYZER: auCDtect: CD records authenticity detector, version 0.8.2
Copyright (c) 2004 Oleg Berngardt. All rights reserved.
Copyright (c) 2004 Alexander Djourik. All rights reserved.
FILE: 12. You Can't Miss What You Can't Measure.flac
Size: 14771446 Hash: FEBE281B4D6C659FDA255D34515F7C25 Accuracy: -m0
Conclusion: CDDA 100%
Signature: 27AB515F032D1364EDDEE4C6A749D156290CF5F3
FILE: 11. Take It Off Him (And Put It On Me).flac
Size: 18348378 Hash: D2BD3B695D1ED7118A098C306793C10A Accuracy: -m0
Conclusion: CDDA 100%
Signature: 89DC95F215268C14ABEABBD51F003055708C7556
FILE: 10. The Feeling Is Right.flac
Size: 18004391 Hash: 87239871D670F07B756A7A7257E4CADE Accuracy: -m0
Conclusion: CDDA 100%
Signature: A5CD603A461DE1E7BAEED6DC4110659FF2B22BFD
FILE: 09. Doin' Our Thing.flac
Size: 14262627 Hash: 0E308659476ACF1E71B0D46FFE13A3F8 Accuracy: -m0
Conclusion: CDDA 100%
Signature: 2047DB573A58650EB3348DB9969C400DBA4D6FC3
FILE: 08. Funky Fever.flac
Size: 18987174 Hash: 3394F5DD9C83EC7DDFC5644260C2B6F6 Accuracy: -m0
Conclusion: CDDA 100%
Signature: 6970CEE92415534BA9A7FAAC9AE3AFFE377EACEB
FILE: 07. I Can't Leave Your Love Alone.flac
Size: 16514052 Hash: D8005A17F9F411CFA292B2C71754BBDC Accuracy: -m0
Conclusion: CDDA 100%
Signature: CDBE4B59A91CF254B270D778FD8270A2592F9745
FILE: 06. Patches.flac
Size: 20697693 Hash: 4581B6865345AD100A084ED631EB6D13 Accuracy: -m0
Conclusion: CDDA 100%
Signature: BC0A54EA297FF38F7E76780BFC952851F51BC9CF
FILE: 05. Snatching It Back.flac
Size: 18218293 Hash: C75A44833599282C834ADE4BC067E9A9 Accuracy: -m0
Conclusion: CDDA 100%
Signature: 4CBE9CA9E2ECB66D674BE3855D8EC8061D0AF176
FILE: 04. Making Love (At The Dark End Of The Street).flac
Size: 30533267 Hash: 7EAF64C958D46E77AEBE25753C764A8A Accuracy: -m0
Conclusion: CDDA 100%
Signature: 399737F25751924A1331C098AA8CF1A9E1194571
FILE: 03. Too Weak To Fight.flac
Size: 15012201 Hash: B0E8CF3BFFCF4702312875743777D97B Accuracy: -m0
Conclusion: CDDA 100%
Signature: EDE8F0F8E4CB16CA3CEFAFE6FCBF03F54C995318
FILE: 02. I Smell A Rat.flac
Size: 17424246 Hash: A10E9098464172E3CB1070D4136B00A1 Accuracy: -m0
Conclusion: CDDA 100%
Signature: 2F440CFDA779932D4684AA06D9EBD08813045022
FILE: 01. Slippin' Around.flac
Size: 15000008 Hash: 7D85284FCBE07005DA217A1B7709AD33 Accuracy: -m0
Conclusion: CDDA 99%
Signature: 4B35CEB578FAC19A56465BC44D5E545195EF5996
 
Об исполнителе (группе)
Приватный:
Нет (DHT включён)
Размер:
207.75 Мб (217,843,510 байт) » файлов: 15
Участники:
0 раздают, 0 качают (0 участников всего)
Внешние участники:
3 раздают, 1 качают (4 участников всего) [ Обновить ]
Есть вопросы - пишите личное сообщение пользователю M0p94ok.
15:12
66
Нет комментариев. Ваш будет первым!