Поиск

(Funk / Soul) [CD] Minnie Riperton - Petals • The Minnie Riperton Collection - 2001, FLAC (tracks+.cue), lossless

(Funk / Soul) [CD] Minnie Riperton - Petals • The Minnie Riperton Collection - 2001, FLAC (tracks+.cue), lossless
Треклист:
Minnie Riperton / Petals • The Minnie Riperton Collection
Жанр: Funk / Soul
Носитель: CD
Страна-производитель диска (релиза): USA
Год издания: 2001
Издатель (лейбл): Capitol Records ‎– 72435-29343-2-4
Страна исполнителя (группы): USA
Аудиокодек: FLAC (*.flac)
Тип рипа: tracks+.cue
Битрейт аудио: lossless
Продолжительность: 1:08:06 + 1:05:07
Источник (релизер): internet
Наличие сканов в содержимом раздачи: да
 
CD1
Треклист:
1. The Edge Of A Dream
2. You Gave Me Soul
3. Lonely Girl
4. Respect
5. We're Going Wrong
6. I Took A Ride (Caravan)
7. Come To My Garden
8. Completeness
9. Expecting
10. Les Fleur
11. Studio Dialog
12. Seeing You This Way (Demo)
13. Reasons
14. Take A Little Trip
15. Lovin' You
16. Every Time He Comes Around
17. Love And Its Glory
18. Simple Things
19. With George Benson Band Lovin' You (Live Reprise)
 
Лог создания рипа
EAC extraction logfile from 14. November 2007, 22:41 for CD
Minnie Riperton / Petals [CD1]
Used drive : PIONEER DVD-RW DVR-111D Adapter: 1 ID: 1
Read mode : Secure with NO C2, accurate stream, disable cache
Read offset correction : 48
Overread into Lead-In and Lead-Out : No
Used output format : C:\Program Files\Exact Audio Copy\flac.exe (User Defined Encoder)
128 kBit/s
Additional command line options : -8 -A tukey(0.25) -A gauss(0.1875) -b 4096 -V -T "artist=%a" -T "title=%t" -T "album=%g" -T "date=%y" -T "tracknumber=%n" -T "genre=%m" %s --sector-align
Other options :
Fill up missing offset samples with silence : Yes
Delete leading and trailing silent blocks : No
Native Win32 interface for Win NT & 2000
Track 1
Filename D:\Petals\01 - The Edge Of A Dream.wav
Pre-gap length 0:00:02.00
Peak level 98.8 %
Track quality 99.9 %
Test CRC 755017C8
Copy CRC 755017C8
Copy OK
Track 2
Filename D:\Petals\02 - You Gave Me Soul.wav
Pre-gap length 0:00:01.06
Peak level 98.8 %
Track quality 100.0 %
Test CRC 5606EFAA
Copy CRC 5606EFAA
Copy OK
Track 3
Filename D:\Petals\03 - Lonely Girl.wav
Pre-gap length 0:00:01.09
Peak level 94.7 %
Track quality 100.0 %
Test CRC 6B6045B6
Copy CRC 6B6045B6
Copy OK
Track 4
Filename D:\Petals\04 - Respect.wav
Pre-gap length 0:00:01.02
Peak level 98.8 %
Track quality 100.0 %
Test CRC C1D7DBDC
Copy CRC C1D7DBDC
Copy OK
Track 5
Filename D:\Petals\05 - We're Going Wrong.wav
Peak level 98.8 %
Track quality 100.0 %
Test CRC 99A0626F
Copy CRC 99A0626F
Copy OK
Track 6
Filename D:\Petals\06 - I Took A Ride (Caravan).wav
Peak level 98.8 %
Track quality 99.9 %
Test CRC F7F9725B
Copy CRC F7F9725B
Copy OK
Track 7
Filename D:\Petals\07 - Come To My Garden.wav
Pre-gap length 0:00:01.53
Peak level 98.8 %
Track quality 100.0 %
Test CRC 760183EE
Copy CRC 760183EE
Copy OK
Track 8
Filename D:\Petals\08 - Completeness.wav
Peak level 98.8 %
Track quality 100.0 %
Test CRC A8B9E06C
Copy CRC A8B9E06C
Copy OK
Track 9
Filename D:\Petals\09 - Expecting.wav
Peak level 98.8 %
Track quality 100.0 %
Test CRC D35C6717
Copy CRC D35C6717
Copy OK
Track 10
Filename D:\Petals\10 - Les Fleur.wav
Peak level 98.8 %
Track quality 99.9 %
Test CRC 3E8EF7E4
Copy CRC 3E8EF7E4
Copy OK
Track 11
Filename D:\Petals\11 - Studio Dialog.wav
Pre-gap length 0:00:01.04
Peak level 53.1 %
Track quality 100.0 %
Test CRC FBA3E050
Copy CRC FBA3E050
Copy OK
Track 12
Filename D:\Petals\12 - Seeing You This Way (Demo).wav
Peak level 98.8 %
Track quality 99.9 %
Test CRC 1D6A659B
Copy CRC 1D6A659B
Copy OK
Track 13
Filename D:\Petals\13 - Reasons.wav
Peak level 98.8 %
Track quality 100.0 %
Test CRC CDEC592D
Copy CRC CDEC592D
Copy OK
Track 14
Filename D:\Petals\14 - Take A Little Trip.wav
Pre-gap length 0:00:01.06
Peak level 98.8 %
Track quality 100.0 %
Test CRC 5EED5950
Copy CRC 5EED5950
Copy OK
Track 15
Filename D:\Petals\15 - Lovin' You.wav
Peak level 95.2 %
Track quality 100.0 %
Test CRC 48DB999D
Copy CRC 48DB999D
Copy OK
Track 16
Filename D:\Petals\16 - Every Time He Comes Around.wav
Peak level 98.8 %
Track quality 100.0 %
Test CRC 33A74A2B
Copy CRC 33A74A2B
Copy OK
Track 17
Filename D:\Petals\17 - Love And Its Glory.wav
Peak level 98.8 %
Track quality 100.0 %
Test CRC EFB32757
Copy CRC EFB32757
Copy OK
Track 18
Filename D:\Petals\18 - Simple Things.wav
Pre-gap length 0:00:01.06
Peak level 98.8 %
Track quality 100.0 %
Test CRC 87A54B94
Copy CRC 87A54B94
Copy OK
Track 19
Filename D:\Petals\19 - Lovin' You (Live Reprise).wav
Peak level 98.8 %
Track quality 99.9 %
Test CRC 86238C7A
Copy CRC 86238C7A
Copy OK
No errors occured
End of status report
 
Содержание индексной карты (.CUE)
PERFORMER "Minnie Riperton"
TITLE "Petals [CD1]"
REM DATE 2001
REM GENRE "Soul"
FILE "01 - The Edge Of A Dream.flac" WAVE
TRACK 01 AUDIO
PERFORMER "Minnie Riperton"
TITLE "The Edge Of A Dream"
INDEX 01 00:00:00
TRACK 02 AUDIO
PERFORMER "Minnie Riperton"
TITLE "You Gave Me Soul"
INDEX 00 04:21:67
FILE "02 - You Gave Me Soul.flac" WAVE
INDEX 01 00:00:00
TRACK 03 AUDIO
PERFORMER "Minnie Riperton"
TITLE "Lonely Girl"
INDEX 00 02:39:28
FILE "03 - Lonely Girl.flac" WAVE
INDEX 01 00:00:00
TRACK 04 AUDIO
PERFORMER "Minnie Riperton"
TITLE "Respect"
INDEX 00 02:59:73
FILE "04 - Respect.flac" WAVE
INDEX 01 00:00:00
FILE "05 - We're Going Wrong.flac" WAVE
TRACK 05 AUDIO
PERFORMER "Minnie Riperton"
TITLE "We're Going Wrong"
INDEX 01 00:00:00
FILE "06 - I Took A Ride (Caravan).flac" WAVE
TRACK 06 AUDIO
PERFORMER "Minnie Riperton"
TITLE "I Took A Ride (Caravan)"
INDEX 01 00:00:00
TRACK 07 AUDIO
PERFORMER "Minnie Riperton"
TITLE "Come To My Garden"
INDEX 00 06:04:02
FILE "07 - Come To My Garden.flac" WAVE
INDEX 01 00:00:00
FILE "08 - Completeness.flac" WAVE
TRACK 08 AUDIO
PERFORMER "Minnie Riperton"
TITLE "Completeness"
INDEX 01 00:00:00
FILE "09 - Expecting.flac" WAVE
TRACK 09 AUDIO
PERFORMER "Minnie Riperton"
TITLE "Expecting"
INDEX 01 00:00:00
FILE "10 - Les Fleur.flac" WAVE
TRACK 10 AUDIO
PERFORMER "Minnie Riperton"
TITLE "Les Fleur"
INDEX 01 00:00:00
TRACK 11 AUDIO
PERFORMER "Minnie Riperton"
TITLE "Studio Dialog"
INDEX 00 03:14:62
FILE "11 - Studio Dialog.flac" WAVE
INDEX 01 00:00:00
FILE "12 - Seeing You This Way (Demo).flac" WAVE
TRACK 12 AUDIO
PERFORMER "Minnie Riperton"
TITLE "Seeing You This Way (Demo)"
INDEX 01 00:00:00
FILE "13 - Reasons.flac" WAVE
TRACK 13 AUDIO
PERFORMER "Minnie Riperton"
TITLE "Reasons"
INDEX 01 00:00:00
TRACK 14 AUDIO
PERFORMER "Minnie Riperton"
TITLE "Take A Little Trip"
INDEX 00 03:26:12
FILE "14 - Take A Little Trip.flac" WAVE
INDEX 01 00:00:00
FILE "15 - Lovin' You.flac" WAVE
TRACK 15 AUDIO
PERFORMER "Minnie Riperton"
TITLE "Lovin' You"
INDEX 01 00:00:00
FILE "16 - Every Time He Comes Around.flac" WAVE
TRACK 16 AUDIO
PERFORMER "Minnie Riperton"
TITLE "Every Time He Comes Around"
INDEX 01 00:00:00
FILE "17 - Love And Its Glory.flac" WAVE
TRACK 17 AUDIO
PERFORMER "Minnie Riperton"
TITLE "Love And Its Glory"
INDEX 01 00:00:00
TRACK 18 AUDIO
PERFORMER "Minnie Riperton"
TITLE "Simple Things"
INDEX 00 05:13:30
FILE "18 - Simple Things.flac" WAVE
INDEX 01 00:00:00
FILE "19 - Lovin' You (Live Reprise).flac" WAVE
TRACK 19 AUDIO
PERFORMER "Minnie Riperton"
TITLE "Lovin' You (Live Reprise)"
INDEX 01 00:00:00
 
Лог проверки качества
-----------------------
DON'T MODIFY THIS FILE
-----------------------
PERFORMER: auCDtect Task Manager, ver. 1.6.0 RC1 build 1.6.0.1
Copyright (c) 2008-2010 y-soft. All rights reserved
http://y-soft.org
ANALYZER: auCDtect: CD records authenticity detector, version 0.8.2
Copyright (c) 2004 Oleg Berngardt. All rights reserved.
Copyright (c) 2004 Alexander Djourik. All rights reserved.
FILE: 19 - Lovin' You (Live Reprise).flac
Size: 28386795 Hash: CE959AEF63E156CE44417257AB2E0D1D Accuracy: -m0
Conclusion: CDDA 99%
Signature: BF8AEC07855643A151A9B0009FFCC2A0FE49F3F1
FILE: 18 - Simple Things.flac
Size: 22675038 Hash: B457AE98485B40C1BAD48C15BB2358F7 Accuracy: -m0
Conclusion: CDDA 100%
Signature: 05B9A3C870A7901BD4EEA05F808C6D4188DA8A46
FILE: 17 - Love And Its Glory.flac
Size: 32239360 Hash: 403FB7CFA5EA5A2E1CB1307D6EC924CF Accuracy: -m0
Conclusion: CDDA 100%
Signature: B0B33B9843F4913C2F496262553040B1596105C7
FILE: 16 - Every Time He Comes Around.flac
Size: 25369582 Hash: 76E010D03D2E9B3B972B25D0BA8285B7 Accuracy: -m0
Conclusion: CDDA 99%
Signature: 437F9934DAEC02169DF2DCBEB562819B46DB8D9D
FILE: 15 - Lovin' You.flac
Size: 20207986 Hash: 085A05665D3520BAFA689A6549EEF3CF Accuracy: -m0
Conclusion: CDDA 85%
Signature: 2B9B23A73819859F8BD112FB8FCD90F9CC321889
FILE: 14 - Take A Little Trip.flac
Size: 25988953 Hash: 872ADC1CBCA0080301B87A97E220B49D Accuracy: -m0
Conclusion: CDDA 100%
Signature: C013A9BB4188EB617E237FF10EE646CD8F73EA70
FILE: 13 - Reasons.flac
Size: 22958203 Hash: D2291A13905EC414498FFC426575E029 Accuracy: -m0
Conclusion: CDDA 100%
Signature: B93A8A6F3EC6F39C41D6865821328BACCB48E88B
FILE: 12 - Seeing You This Way (Demo).flac
Size: 14374656 Hash: E7C1D8508BB04322BD7A252B128C038B Accuracy: -m0
Conclusion: CDDA 76%
Signature: DC41B0AB691E98DE1345B9A75E09AFD9B0DDC041
FILE: 11 - Studio Dialog.flac
Size: 2310837 Hash: 063432DC7CC3714AF1D9EADC7704ACF5 Accuracy: -m0
Conclusion: CDDA 100%
Signature: CA8DC38C412024E4CAF73887387976E0D503FD29
FILE: 10 - Les Fleur.flac
Size: 18832449 Hash: 06C3302C2A19E8FDBFB970C0039FF931 Accuracy: -m0
Conclusion: CDDA 94%
Signature: 261215A3881402895FFBB4991C32A92E508EA9BD
FILE: 09 - Expecting.flac
Size: 19857782 Hash: 714E67A291A026D64A86E6210A8A8F17 Accuracy: -m0
Conclusion: ???
Signature: 553A0AC58538D7137806901B23348CBB68E85888
FILE: 08 - Completeness.flac
Size: 18828640 Hash: F31F8A1EC89A3C6DDCB66B30F9A73DEA Accuracy: -m0
Conclusion: CDDA 100%
Signature: 759C734A0D6B9712A1E4A23244F0FBE1775B07CE
FILE: 07 - Come To My Garden.flac
Size: 16548733 Hash: 13711A23AA89FA5FAB850422F0E65C35 Accuracy: -m0
Conclusion: MPEG 80%
Signature: 72DDB53510204CE50154ED7DF3F2C28FD0805AB4
FILE: 06 - I Took A Ride (Caravan).flac
Size: 38167966 Hash: 6BE368F4E51941FAF17DF86D4136B4A5 Accuracy: -m0
Conclusion: CDDA 100%
Signature: F1D5459A72BAD9C7AC51D87C63483E0062DB90E4
FILE: 05 - We're Going Wrong.flac
Size: 20470536 Hash: 6D072C7DFF70023E3D34D83891EB01CB Accuracy: -m0
Conclusion: CDDA 99%
Signature: 2E8F070E2011751794EB32C734F0D729805AFB07
FILE: 04 - Respect.flac
Size: 20523287 Hash: C89638D9273D2290892276DB8CDD0641 Accuracy: -m0
Conclusion: CDDA 100%
Signature: 75C8467AD018737CD8A20121F2D8F27C6820944A
FILE: 03 - Lonely Girl.flac
Size: 18804835 Hash: 4BED6C6D44D5A950EA8D7729376C04A8 Accuracy: -m0
Conclusion: MPEG 89%
Signature: D4A0DF6F30C5153370546B1A80EDD66BBAE187C9
FILE: 02 - You Gave Me Soul.flac
Size: 16227091 Hash: 90535FA75CC5B923BE221F9A4CCC04F4 Accuracy: -m0
Conclusion: CDDA 100%
Signature: 48905FC8561E4AF671464DBC382F4B036EB58CD5
FILE: 01 - The Edge Of A Dream.flac
Size: 23223614 Hash: 656DC09A0777CAA2C093A837992B1035 Accuracy: -m0
Conclusion: CDDA 100%
Signature: 5B3C1B840079C3F964454BAC3D095112A7722B1E
 
CD2
Треклист:
1. Perfect Angel
2. Adventures In Paradise
3. Young, Willing And Able
4. Gettin' Ready For Your Love
5. Baby, This Love I Have
6. Can You Feel What I'm Saying?
7. Inside My Love
8. Featuring José Feliciano Light My Fire
9. Could It Be I'm In Love
10. Stay In Love
11. Featuring Peabo Bryson Here We Go
12. Memory Lane
13. Woman Of Heart And Mind
14. Return To Forever
15. Lover And Friend
16. Give Me Time
 
Лог создания рипа
EAC extraction logfile from 14. November 2007, 23:14 for CD
Minnie Riperton / Petals (Disc 2)
Used drive : PIONEER DVD-RW DVR-111D Adapter: 1 ID: 1
Read mode : Secure with NO C2, accurate stream, disable cache
Read offset correction : 48
Overread into Lead-In and Lead-Out : No
Used output format : C:\Program Files\Exact Audio Copy\flac.exe (User Defined Encoder)
128 kBit/s
Additional command line options : -8 -A tukey(0.25) -A gauss(0.1875) -b 4096 -V -T "artist=%a" -T "title=%t" -T "album=%g" -T "date=%y" -T "tracknumber=%n" -T "genre=%m" %s --sector-align
Other options :
Fill up missing offset samples with silence : Yes
Delete leading and trailing silent blocks : No
Native Win32 interface for Win NT & 2000
Track 1
Filename D:\Petals\CD2\01 - Perfect Angel.wav
Pre-gap length 0:00:02.00
Peak level 98.8 %
Track quality 100.0 %
Test CRC 44B9AC4A
Copy CRC 44B9AC4A
Copy OK
Track 2
Filename D:\Petals\CD2\02 - Adventures In Paradise.wav
Pre-gap length 0:00:01.56
Peak level 98.8 %
Track quality 100.0 %
Test CRC 433CC659
Copy CRC 433CC659
Copy OK
Track 3
Filename D:\Petals\CD2\03 - Young, Willing And Able.wav
Pre-gap length 0:00:01.50
Peak level 98.8 %
Track quality 99.9 %
Test CRC 366BE4EF
Copy CRC 366BE4EF
Copy OK
Track 4
Filename D:\Petals\CD2\04 - Gettin' Ready For Your Love.wav
Peak level 98.8 %
Track quality 100.0 %
Test CRC A33114B1
Copy CRC A33114B1
Copy OK
Track 5
Filename D:\Petals\CD2\05 - Baby, This Love I Have.wav
Peak level 98.8 %
Track quality 100.0 %
Test CRC 085E8B17
Copy CRC 085E8B17
Copy OK
Track 6
Filename D:\Petals\CD2\06 - Can You Feel What I'm Saying .wav
Peak level 98.8 %
Track quality 99.9 %
Test CRC 60AE53B7
Copy CRC 60AE53B7
Copy OK
Track 7
Filename D:\Petals\CD2\07 - Inside My Love.wav
Peak level 96.9 %
Track quality 100.0 %
Test CRC FD058548
Copy CRC FD058548
Copy OK
Track 8
Filename D:\Petals\CD2\08 - Light My Fire Feat. Jose' Feliciano.wav
Peak level 98.8 %
Track quality 100.0 %
Test CRC 2DF99BA0
Copy CRC 2DF99BA0
Copy OK
Track 9
Filename D:\Petals\CD2\09 - Could It Be I'm Love.wav
Pre-gap length 0:00:01.56
Peak level 98.8 %
Track quality 100.0 %
Test CRC 9503000E
Copy CRC 9503000E
Copy OK
Track 10
Filename D:\Petals\CD2\10 - Stay In Love.wav
Peak level 98.8 %
Track quality 100.0 %
Test CRC E7AF45EA
Copy CRC E7AF45EA
Copy OK
Track 11
Filename D:\Petals\CD2\11 - Here We Go Feat. Peabo Bryson.wav
Peak level 98.8 %
Track quality 100.0 %
Test CRC 06717A59
Copy CRC 06717A59
Copy OK
Track 12
Filename D:\Petals\CD2\12 - Memory Lane.wav
Peak level 98.8 %
Track quality 100.0 %
Test CRC 003F665E
Copy CRC 003F665E
Copy OK
Track 13
Filename D:\Petals\CD2\13 - Woman Of Heart And Mind.wav
Pre-gap length 0:00:01.56
Peak level 98.8 %
Track quality 100.0 %
Test CRC F41D96BB
Copy CRC F41D96BB
Copy OK
Track 14
Filename D:\Petals\CD2\14 - Return To Forever.wav
Peak level 98.8 %
Track quality 100.0 %
Test CRC 23BC380F
Copy CRC 23BC380F
Copy OK
Track 15
Filename D:\Petals\CD2\15 - Lover And Friend.wav
Pre-gap length 0:00:01.57
Peak level 98.8 %
Track quality 100.0 %
Test CRC 5B32CA87
Copy CRC 5B32CA87
Copy OK
Track 16
Filename D:\Petals\CD2\16 - Give Me Time.wav
Pre-gap length 0:00:01.57
Peak level 98.8 %
Track quality 100.0 %
Test CRC 1083D503
Copy CRC 1083D503
Copy OK
No errors occured
End of status report
 
Содержание индексной карты (.CUE)
PERFORMER "Minnie Riperton"
TITLE "Petals (Disc 2)"
REM DATE 2001
REM GENRE "Soul"
FILE "01 - Perfect Angel.flac" WAVE
TRACK 01 AUDIO
PERFORMER "Minnie Riperton"
TITLE "Perfect Angel"
INDEX 01 00:00:00
TRACK 02 AUDIO
PERFORMER "Minnie Riperton"
TITLE "Adventures In Paradise"
INDEX 00 03:22:40
FILE "02 - Adventures In Paradise.flac" WAVE
INDEX 01 00:00:00
TRACK 03 AUDIO
PERFORMER "Minnie Riperton"
TITLE "Young, Willing And Able"
INDEX 00 03:12:50
FILE "03 - Young, Willing And Able.flac" WAVE
INDEX 01 00:00:00
FILE "04 - Gettin' Ready For Your Love.flac" WAVE
TRACK 04 AUDIO
PERFORMER "Minnie Riperton"
TITLE "Gettin' Ready For Your Love"
INDEX 01 00:00:00
FILE "05 - Baby, This Love I Have.flac" WAVE
TRACK 05 AUDIO
PERFORMER "Minnie Riperton"
TITLE "Baby, This Love I Have"
INDEX 01 00:00:00
FILE "06 - Can You Feel What I'm Saying .flac" WAVE
TRACK 06 AUDIO
PERFORMER "Minnie Riperton"
TITLE "Can You Feel What I'm Saying?"
INDEX 01 00:00:00
FILE "07 - Inside My Love.flac" WAVE
TRACK 07 AUDIO
PERFORMER "Minnie Riperton"
TITLE "Inside My Love"
INDEX 01 00:00:00
FILE "08 - Light My Fire Feat. Jose' Feliciano.flac" WAVE
TRACK 08 AUDIO
PERFORMER "Minnie Riperton"
TITLE "Light My Fire Feat. Jose' Feliciano"
INDEX 01 00:00:00
TRACK 09 AUDIO
PERFORMER "Minnie Riperton"
TITLE "Could It Be I'm Love"
INDEX 00 05:08:30
FILE "09 - Could It Be I'm Love.flac" WAVE
INDEX 01 00:00:00
FILE "10 - Stay In Love.flac" WAVE
TRACK 10 AUDIO
PERFORMER "Minnie Riperton"
TITLE "Stay In Love"
INDEX 01 00:00:00
FILE "11 - Here We Go Feat. Peabo Bryson.flac" WAVE
TRACK 11 AUDIO
PERFORMER "Minnie Riperton"
TITLE "Here We Go Feat. Peabo Bryson"
INDEX 01 00:00:00
FILE "12 - Memory Lane.flac" WAVE
TRACK 12 AUDIO
PERFORMER "Minnie Riperton"
TITLE "Memory Lane"
INDEX 01 00:00:00
TRACK 13 AUDIO
PERFORMER "Minnie Riperton"
TITLE "Woman Of Heart And Mind"
INDEX 00 04:23:68
FILE "13 - Woman Of Heart And Mind.flac" WAVE
INDEX 01 00:00:00
FILE "14 - Return To Forever.flac" WAVE
TRACK 14 AUDIO
PERFORMER "Minnie Riperton"
TITLE "Return To Forever"
INDEX 01 00:00:00
TRACK 15 AUDIO
PERFORMER "Minnie Riperton"
TITLE "Lover And Friend"
INDEX 00 04:08:07
FILE "15 - Lover And Friend.flac" WAVE
INDEX 01 00:00:00
TRACK 16 AUDIO
PERFORMER "Minnie Riperton"
TITLE "Give Me Time"
INDEX 00 04:15:27
FILE "16 - Give Me Time.flac" WAVE
INDEX 01 00:00:00
 
Лог проверки качества
-----------------------
DON'T MODIFY THIS FILE
-----------------------
PERFORMER: auCDtect Task Manager, ver. 1.6.0 RC1 build 1.6.0.1
Copyright (c) 2008-2010 y-soft. All rights reserved
http://y-soft.org
ANALYZER: auCDtect: CD records authenticity detector, version 0.8.2
Copyright (c) 2004 Oleg Berngardt. All rights reserved.
Copyright (c) 2004 Alexander Djourik. All rights reserved.
FILE: 16 - Give Me Time.flac
Size: 23492631 Hash: 447DEB676F657006D0F9EC65D7041809 Accuracy: -m0
Conclusion: CDDA 100%
Signature: 162A625A102FB4615B8C8BB9EF76CE9EB475F768
FILE: 15 - Lover And Friend.flac
Size: 27601185 Hash: D515CA8562C6D3C9A3F6439D0A71C6AC Accuracy: -m0
Conclusion: CDDA 100%
Signature: D78330609C31D190ACAFB15E73181840973A8700
FILE: 14 - Return To Forever.flac
Size: 23436474 Hash: B3BA883EBEF57EC8D1355F45270EEA50 Accuracy: -m0
Conclusion: CDDA 100%
Signature: 877168C63B706266A12D0EA52007587E86DB03E6
FILE: 13 - Woman Of Heart And Mind.flac
Size: 23396695 Hash: EB1ABA40AC075A931F250993990BC203 Accuracy: -m0
Conclusion: CDDA 99%
Signature: B8D1B7065A6FAD659363CEEB988298F79F7348AB
FILE: 12 - Memory Lane.flac
Size: 26370264 Hash: F301D5C73DD8DEFE6150E163FA303167 Accuracy: -m0
Conclusion: CDDA 100%
Signature: E5CEB01B358A2A01444B5D06A248FAE4444566EB
FILE: 11 - Here We Go Feat. Peabo Bryson.flac
Size: 24919257 Hash: E2F3F49AAC8988B56920FF00B2B3C2BA Accuracy: -m0
Conclusion: CDDA 100%
Signature: 092A78DB002CB304080239A64BBEEBD69F31A9C6
FILE: 10 - Stay In Love.flac
Size: 18885324 Hash: 1B0C916C49A1B5AFEFD349BFBED61318 Accuracy: -m0
Conclusion: CDDA 100%
Signature: 9A7A313E40063E592DBF5FA08F875D3A4D9949F5
FILE: 09 - Could It Be I'm Love.flac
Size: 26483295 Hash: 296D36BFAE4F363D381B12BB516E84A4 Accuracy: -m0
Conclusion: CDDA 100%
Signature: 501CD1541FA8805A3B9AF6F08FDA9459C832CCD3
FILE: 08 - Light My Fire Feat. Jose' Feliciano.flac
Size: 27767797 Hash: 21698DAD85E35381EEFDBD8391205F74 Accuracy: -m0
Conclusion: CDDA 92%
Signature: DF02F1CFCB4D9EC48E5E5AE29513989E03F4B10F
FILE: 07 - Inside My Love.flac
Size: 25303573 Hash: 4C3DBCA314756312573FE88AE37F3BFE Accuracy: -m0
Conclusion: CDDA 100%
Signature: 13A78DAC15238896A010C3270C5EC07A1E4CF1D1
FILE: 06 - Can You Feel What I'm Saying .flac
Size: 24613564 Hash: B8A43AD7848B531211DA38626F93E342 Accuracy: -m0
Conclusion: CDDA 100%
Signature: 0CA3A7DA01550401DD616362ABA8316350889077
FILE: 05 - Baby, This Love I Have.flac
Size: 24730903 Hash: 2C4A879EBED6E9F2E8F29502E5B4A222 Accuracy: -m0
Conclusion: CDDA 99%
Signature: 7C62E26A6CC6417848F60D0CACF6B509C550C67A
FILE: 04 - Gettin' Ready For Your Love.flac
Size: 21123625 Hash: 766736C671E3E1DA45CEF298A3840D13 Accuracy: -m0
Conclusion: CDDA 100%
Signature: 4E9DD619302B91A7CB27DA362859B688517D0472
FILE: 03 - Young, Willing And Able.flac
Size: 25193251 Hash: BDF64871023D144FC6A6249BF2BC2E59 Accuracy: -m0
Conclusion: CDDA 100%
Signature: 7FAD3080F47B42C91CE87859BA7F34E9E8ADEA2E
FILE: 02 - Adventures In Paradise.flac
Size: 19778797 Hash: C3B47BDFFED57BACBFEC78C21297198F Accuracy: -m0
Conclusion: CDDA 100%
Signature: F8BF894CC6376940B30934FF3DC7758276A2EBB0
FILE: 01 - Perfect Angel.flac
Size: 22291221 Hash: ECBF612143B6472E13D7BB79FF5ECF11 Accuracy: -m0
Conclusion: CDDA 100%
Signature: F402138688A2F3C3A2C0D550D79C744A1FFA4CA9
Приватный:
Нет (DHT включён)
Размер:
757.16 Мб (793,943,105 байт) » файлов: 51
Участники:
0 раздают, 1 качают (1 участников всего)
Внешние участники:
7 раздают, 2 качают (9 участников всего) [ Обновить ]
Есть вопросы - пишите личное сообщение пользователю M0p94ok.
15:11
203
Нет комментариев. Ваш будет первым!