Поиск

(Funk, Soul, R&B) [WEB] Bobby Patterson - It's Just a Matter of Time - 1972, FLAC (tracks), lossless

(Funk, Soul, R&B) [WEB] Bobby Patterson - It's Just a Matter of Time - 1972, FLAC (tracks), lossless
Треклист:
Bobby Patterson / It's Just a Matter of Time
Жанр: Funk, Soul, R&B
Носитель: WEB
Год издания: 1972
Издатель (лейбл): Paula Records
Страна исполнителя (группы): USA
Аудиокодек: FLAC (*.flac)
Тип рипа: tracks
Битрейт аудио: lossless
Продолжительность: 00:34:43
Источник (релизер): qobuz
Наличие сканов в содержимом раздачи: Front
Треклист:
01. If You Took a Survey
02. I Get My Groove from You
03. Make Sure You Can Handle It
04. Everything Good to You (Don't Have to Be Good for You)
05. How Do You Spell Love
06. Recipe for Peace
07. Quiet! Do Not Disturb
08. She Don't Have to See You (To See Through You)
09. Right on Jody
10. I Just Loved You Because I Wanted To
11. One Ounce of Prevention
12. This Whole Funky World is a Ghetto
 
DR Log
foobar2000 1.1.10 / Dynamic Range Meter 1.1.1
log date: 2018-01-04 21:41:33
--------------------------------------------------------------------------------
Analyzed: Bobby Patterson / It's Just a Matter of Time
--------------------------------------------------------------------------------
DR Peak RMS Duration Track
--------------------------------------------------------------------------------
DR10 -1.17 dB -10.65 dB 2:39 ?-If You Took a Survey
DR10 -1.17 dB -11.75 dB 3:26 ?-I Get My Groove from You
DR9 -1.17 dB -11.24 dB 2:44 ?-Make Sure You Can Handle It
DR9 -1.17 dB -11.74 dB 2:57 ?-Everything Good to You (Don't Have to Be Good for You)
DR10 -1.17 dB -12.22 dB 2:21 ?-How Do You Spell Love
DR10 -1.17 dB -11.91 dB 3:18 ?-Recipe for Peace
DR9 -1.17 dB -12.22 dB 2:00 ?-Quiet! Do Not Disturb
DR9 -1.17 dB -10.96 dB 3:24 ?-She Don't Have to See You (To See Through You)
DR10 -1.17 dB -13.42 dB 3:07 ?-Right on Jody
DR11 -1.17 dB -12.26 dB 2:24 ?-I Just Loved You Because I Wanted To
DR10 -1.17 dB -12.97 dB 2:59 ?-One Ounce of Prevention
DR8 -1.17 dB -11.85 dB 3:24 ?-This Whole Funky World is a Ghetto
--------------------------------------------------------------------------------
Number of tracks: 12
Official DR value: DR10
Samplerate: 44100 Hz
Channels: 2
Bits per sample: 16
Bitrate: 862 kbps
Codec: FLAC
================================================================================
 
Лог проверки качества
-----------------------
DON'T MODIFY THIS FILE
-----------------------
PERFORMER: auCDtect Task Manager, ver. 1.5.1RC4 build 1.5.1.5
Copyright (c) 2008-2010 y-soft. All rights reserved
http://y-soft.org
ANALYZER: auCDtect: CD records authenticity detector, version 0.8.2
Copyright (c) 2004 Oleg Berngardt. All rights reserved.
Copyright (c) 2004 Alexander Djourik. All rights reserved.
FILE: 12. This Whole Funky World is a Ghetto.flac
Size: 21989450 Hash: DE996BB4D82E0CDC061B67C7D954458D Accuracy: -m0
Conclusion: CDDA 100%
Signature: 8CDF3DE8E8431707EA2074F0CCE1AC9A71916B7F
FILE: 11. One Ounce of Prevention.flac
Size: 17238599 Hash: D390AD5DE1229B44E8D9B67A08BE4F85 Accuracy: -m0
Conclusion: CDDA 100%
Signature: AC080BA03BAD566295FBACA592A8EC0AE4B7DB3C
FILE: 10. I Just Loved You Because I Wanted To.flac
Size: 14551465 Hash: 30E2AB5EE91ED096F8CDABB452D9041A Accuracy: -m0
Conclusion: CDDA 100%
Signature: 3DDD135C9935CF5A277E09FD5974B1B94151D2D3
FILE: 09. Right on Jody.flac
Size: 19188513 Hash: 846A5D0180988DF0FF0FD6EDD24BE41F Accuracy: -m0
Conclusion: CDDA 100%
Signature: 77AB9B1F070325AE283AC7C879ECFEAC84177F91
FILE: 08. She Don't Have to See You (To See Through You).flac
Size: 20941010 Hash: 38BCFFF26A80C30811F47CB95601C7A4 Accuracy: -m0
Conclusion: CDDA 100%
Signature: 29606EB058F2DB178F50393D2E013707E19A139E
FILE: 07. Quiet! Do Not Disturb.flac
Size: 13172164 Hash: A5237717758CE4FE6E299F13731D7167 Accuracy: -m0
Conclusion: CDDA 100%
Signature: B104CA0BDFFB4BA52D09F79CFD7B9F22E91E0057
FILE: 06. Recipe for Peace.flac
Size: 21811852 Hash: 37AA343E23C95A9BE5BA522D98298082 Accuracy: -m0
Conclusion: CDDA 100%
Signature: 65B398E90CCF98923247B88885587CF3DCDEEF76
FILE: 05. How Do You Spell Love.flac
Size: 14582331 Hash: C0D1A4B9DC10EDCFDF1BE63880FCD620 Accuracy: -m0
Conclusion: CDDA 99%
Signature: 4B44AD75362355488D9496A1D4C4BB224DC256F7
FILE: 04. Everything Good to You (Don't Have to Be Good for You).flac
Size: 19105108 Hash: 39F1ADC3B14DBDF93EA0FFCB681EAD89 Accuracy: -m0
Conclusion: CDDA 100%
Signature: 05B18AFD8BC88B7598F72E43457B3D8D83D5CE2B
FILE: 03. Make Sure You Can Handle It.flac
Size: 17838152 Hash: 88E47681F7C1181E9578EF5862025F9A Accuracy: -m0
Conclusion: CDDA 100%
Signature: D1AFD15E4A076DD695BB56F51202EABCD9E33A9A
FILE: 02. I Get My Groove from You.flac
Size: 21000741 Hash: 49702F190F838213AB0987DFCE592335 Accuracy: -m0
Conclusion: CDDA 100%
Signature: D63FF7D69D6AF5AE44E7960EEC9A42D364538A57
FILE: 01. If You Took a Survey.flac
Size: 16655702 Hash: EEDCC9A11839F363DD9037C3ACDCE421 Accuracy: -m0
Conclusion: CDDA 100%
Signature: 5392D6CA8939D945BC532D896247B937FD957367
 
Об исполнителе (группе)
Приватный:
Нет (DHT включён)
Размер:
208.26 Мб (218,375,642 байт) » файлов: 15
Участники:
0 раздают, 0 качают (0 участников всего)
Внешние участники:
1 раздают, 0 качают (1 участников всего) [ Обновить ]
Есть вопросы - пишите личное сообщение пользователю M0p94ok.
15:13
48
Нет комментариев. Ваш будет первым!