Поиск

(Jazz-Funk, Soul, Funk) [WEB] The Harold Wheeler Consort - Black Cream - 1974, FLAC (tracks), lossless

(Jazz-Funk, Soul, Funk) [WEB] The Harold Wheeler Consort - Black Cream - 1974, FLAC (tracks), lossless
Треклист:
The Harold Wheeler Consort / Black Cream
Жанр: Jazz-Funk, Soul, Funk
Носитель: WEB
Год издания: 1974
Издатель (лейбл): Gryphon Records
Аудиокодек: FLAC (*.flac)
Тип рипа: tracks
Битрейт аудио: lossless
Продолжительность: 00:39:54
Источник (релизер): qobuz
Наличие сканов в содержимом раздачи: Front
Треклист:
1. Black Cream
2. Then Came You / Don't Cry Girl
3. The Need to Be
4. Let's Put It All Together
5. Color Me Soul
6. Corner of the Sky
7. Feel Like Makin' Love
8. Send in the Clowns
9. Mack the Knife
 
DR Log
foobar2000 1.1.10 / Dynamic Range Meter 1.1.1
log date: 2018-01-04 22:24:44
--------------------------------------------------------------------------------
Analyzed: The Harold Wheeler Consort / Black Cream
--------------------------------------------------------------------------------
DR Peak RMS Duration Track
--------------------------------------------------------------------------------
DR12 -1.17 dB -16.06 dB 3:54 ?-Black Cream
DR11 -1.17 dB -14.88 dB 7:32 ?-Then Came You / Don't Cry Girl
DR13 -1.37 dB -17.78 dB 4:38 ?-The Need to Be
DR13 -1.69 dB -19.38 dB 4:35 ?-Let's Put It All Together
DR11 -1.16 dB -14.54 dB 3:04 ?-Color Me Soul
DR10 -1.17 dB -13.54 dB 3:29 ?-Corner of the Sky
DR12 -1.17 dB -15.22 dB 3:46 ?-Feel Like Makin' Love
DR12 -2.52 dB -18.93 dB 5:27 ?-Send in the Clowns
DR10 -1.17 dB -13.13 dB 3:29 ?-Mack the Knife
--------------------------------------------------------------------------------
Number of tracks: 9
Official DR value: DR12
Samplerate: 44100 Hz
Channels: 2
Bits per sample: 16
Bitrate: 904 kbps
Codec: FLAC
================================================================================
 
Лог проверки качества
-----------------------
DON'T MODIFY THIS FILE
-----------------------
PERFORMER: auCDtect Task Manager, ver. 1.5.1RC4 build 1.5.1.5
Copyright (c) 2008-2010 y-soft. All rights reserved
http://y-soft.org
ANALYZER: auCDtect: CD records authenticity detector, version 0.8.2
Copyright (c) 2004 Oleg Berngardt. All rights reserved.
Copyright (c) 2004 Alexander Djourik. All rights reserved.
FILE: 9. Mack the Knife.flac
Size: 23915807 Hash: D8F16E71C69C599B3673CF7A2471EE14 Accuracy: -m0
Conclusion: CDDA 100%
Signature: 7D8AF2D55581081FA4D84BFDD4019B2BA83D449E
FILE: 8. Send in the Clowns.flac
Size: 28187298 Hash: 308A7B3F602FE766A79F0ACD68DF7089 Accuracy: -m0
Conclusion: CDDA 100%
Signature: D3FD9A0F1CE9302A9A966B6EC68BF1DCB416BE20
FILE: 7. Feel Like Makin' Love.flac
Size: 23102752 Hash: 09941EC093FF1D3BC9FCB2E72D9A2EF0 Accuracy: -m0
Conclusion: CDDA 100%
Signature: 97840E143F8F41F511503F7D28F82F976104342A
FILE: 6. Corner of the Sky.flac
Size: 22297844 Hash: 4B50285AAC9D66FBCBDA7BA8517FFFCF Accuracy: -m0
Conclusion: CDDA 99%
Signature: 17FF77A2292559A3F99A7C25A8548D582728EC74
FILE: 5. Color Me Soul.flac
Size: 20198291 Hash: 77124BB01F0C1C7F4F04B50DB0AB56C7 Accuracy: -m0
Conclusion: CDDA 100%
Signature: 33A3772E68C76D4D595AFCB0C61276B099BE3CB0
FILE: 4. Let's Put It All Together.flac
Size: 23167114 Hash: EEE8A1749BC194179FA8055C2D500053 Accuracy: -m0
Conclusion: CDDA 100%
Signature: F24BDF90317BA228F48CEF4A573F2DF941156F6F
FILE: 3. The Need to Be.flac
Size: 25875443 Hash: 78CB0EC98638CD2D5092BD9ECA9C6816 Accuracy: -m0
Conclusion: CDDA 100%
Signature: 63E56F635B069C41BD79F95D3FD6CB9ACAAF58B5
FILE: 2. Then Came You - Don't Cry Girl.flac
Size: 43122228 Hash: 8FB5495785FA0A07FBB0D8DB736F5180 Accuracy: -m0
Conclusion: CDDA 100%
Signature: 594B37B4A27AFAF7900E06697D9C452C645A1168
FILE: 1. Black Cream.flac
Size: 23965275 Hash: FE79B0D78D8C97D26DA28DEE7D2796A7 Accuracy: -m0
Conclusion: CDDA 100%
Signature: 8E7EC12899CB83ACBC6EC82903AC168A0B078408
 
Состав
Classical Guitar – Gene Bertoncini (tracks: B4)
Drums, Other [Sandpaper] – Allan Schwartzberg
Electric Bass [Fender] – David Dutemple
Electric Guitar – Richard Resnicoff (tracks: A2, A5)
Electric Guitar, Acoustic Guitar, Sitar – Jeff Mironov
Piano, Organ, Electric Piano [Fender Rhodes], Electric Piano [Rmi], Harpsichord, Synthesizer [Moog], Clavinet – Harold Wheeler
Producer, Arranged By – Harold Wheeler
Programmed By [Moog] – Walter Sear
Приватный:
Нет (DHT включён)
Размер:
223.32 Мб (234,171,695 байт) » файлов: 12
Участники:
0 раздают, 0 качают (0 участников всего)
Внешние участники:
2 раздают, 1 качают (3 участников всего) [ Обновить ]
Есть вопросы - пишите личное сообщение пользователю M0p94ok.
15:13
88
Нет комментариев. Ваш будет первым!