Поиск

(Funk, Soul) [WEB] Patti Labelle, The Bluebelles - Over The Rainbow - 1966/2017, FLAC (tracks), lossless

(Funk, Soul) [WEB] Patti Labelle, The Bluebelles - Over The Rainbow - 1966/2017, FLAC (tracks), lossless
Треклист:
Patti Labelle, The Bluebelles / Over The Rainbow
Жанр: Funk, Soul
Носитель: WEB
Год издания: 1966/2017
Издатель (лейбл): Rhino Atlantic
Страна исполнителя (группы): USA
Аудиокодек: FLAC (*.flac)
Тип рипа: tracks
Битрейт аудио: lossless
Продолжительность: 00:34:02
Источник (релизер): 7digital
Наличие сканов в содержимом раздачи: Front
Треклист:
01. Over The Rainbow
02. More
03. Groovy Kind Of Love
04. Ebb Tide
05. All Or Nothing
06. People
07. Unchained Melody
08. Patti's Prayer
09. He
10. Yesterday
11. Who Can I Turn To
12. Try To Remember
 
DR Log
foobar2000 1.1.10 / Dynamic Range Meter 1.1.1
log date: 2018-01-05 15:36:20
--------------------------------------------------------------------------------
Analyzed: Patti Labelle, The Bluebelles / Over The Rainbow
--------------------------------------------------------------------------------
DR Peak RMS Duration Track
--------------------------------------------------------------------------------
DR10 -3.62 dB -18.09 dB 2:47 ?-Over The Rainbow
DR9 -2.91 dB -15.26 dB 2:14 ?-More
DR10 -1.93 dB -15.04 dB 2:13 ?-Groovy Kind Of Love
DR11 -2.43 dB -16.81 dB 2:21 ?-Ebb Tide
DR9 -0.96 dB -13.28 dB 2:28 ?-All Or Nothing
DR11 -3.07 dB -17.14 dB 4:32 ?-People
DR10 -3.16 dB -16.08 dB 3:40 ?-Unchained Melody
DR10 -0.01 dB -14.11 dB 2:24 ?-Patti's Prayer
DR10 -4.71 dB -17.92 dB 2:45 ?-He
DR11 -3.91 dB -19.03 dB 2:15 ?-Yesterday
DR10 -3.08 dB -17.05 dB 3:09 ?-Who Can I Turn To
DR10 -5.77 dB -19.99 dB 3:14 ?-Try To Remember
--------------------------------------------------------------------------------
Number of tracks: 12
Official DR value: DR10
Samplerate: 44100 Hz
Channels: 2
Bits per sample: 16
Bitrate: 773 kbps
Codec: FLAC
================================================================================
 
Лог проверки качества
-----------------------
DON'T MODIFY THIS FILE
-----------------------
PERFORMER: auCDtect Task Manager, ver. 1.5.1RC4 build 1.5.1.5
Copyright (c) 2008-2010 y-soft. All rights reserved
http://y-soft.org
ANALYZER: auCDtect: CD records authenticity detector, version 0.8.2
Copyright (c) 2004 Oleg Berngardt. All rights reserved.
Copyright (c) 2004 Alexander Djourik. All rights reserved.
FILE: 12. Try To Remember.flac
Size: 18962240 Hash: F94B861396BA91FCE16292E75B2DDF7A Accuracy: -m0
Conclusion: CDDA 100%
Signature: 9CCF2F1B659D68BD82B384337A879F5DB0F492C2
FILE: 11. Who Can I Turn To.flac
Size: 18336792 Hash: 4716141C9F4BB8CC7FF54014CBD6FDE7 Accuracy: -m0
Conclusion: CDDA 100%
Signature: C7749A16258D104B3460447BAB1347FB6B73EEE2
FILE: 10. Yesterday.flac
Size: 13099923 Hash: 362702ADDB0523D91934C6B7441AB43B Accuracy: -m0
Conclusion: CDDA 100%
Signature: D4CCB206A89D128193BA01C28B952E5A8E973168
FILE: 09. He.flac
Size: 16489301 Hash: 223894A7D3E688E8664CE44B8C6B85A5 Accuracy: -m0
Conclusion: CDDA 100%
Signature: 9E1DF4204E6F754B35AD5DC5E1832087D0F10794
FILE: 08. Patti's Prayer.flac
Size: 15325917 Hash: ECDD23AEAA518407553C9949A6F42812 Accuracy: -m0
Conclusion: CDDA 100%
Signature: D97BF29CAADC9C0ABB8402DAF38D40194ADA3405
FILE: 07. Unchained Melody.flac
Size: 22704548 Hash: E6939B1AF38A2B095A417B47BB5271BE Accuracy: -m0
Conclusion: CDDA 100%
Signature: F6761F42373704EDBA234C63FAE163FB97234C95
FILE: 06. People.flac
Size: 27209605 Hash: BAA996BBD19E88C34F34D3797E3CD370 Accuracy: -m0
Conclusion: CDDA 100%
Signature: 238404E7B2F5A6501BFCB41359BC51BD521908DB
FILE: 05. All Or Nothing.flac
Size: 16248177 Hash: 0A7CA920F9BF8884981753724E73953C Accuracy: -m0
Conclusion: CDDA 100%
Signature: 622950E45DE58C9F4E7F8B798D0FBFD934CB1BC9
FILE: 04. Ebb Tide.flac
Size: 14358351 Hash: 23CFB14CD3D57BA4FB38814A76A33192 Accuracy: -m0
Conclusion: CDDA 100%
Signature: 15AD555914F118B5FFEEFEE88148CF5E3CFDDC80
FILE: 03. Groovy Kind Of Love.flac
Size: 14581027 Hash: F0892F183CC7B4954A7F5CA2B11D73BF Accuracy: -m0
Conclusion: CDDA 100%
Signature: CBB2C3336CCE9AD3D79C799502F398BEDBB39BC9
FILE: 02. More.flac
Size: 14692347 Hash: 207A2796BEE1BF702775BD5A6562409A Accuracy: -m0
Conclusion: CDDA 100%
Signature: C8A7EEB3ECAA767A442DA962092DD20BDF09CE01
FILE: 01. Over The Rainbow.flac
Size: 16574214 Hash: 786919D5E1D2076E7726D5289EC41EE7 Accuracy: -m0
Conclusion: CDDA 100%
Signature: 1A555BF4CE78BDEB7EB1F49D8361EA5520241FC6
 
Об альбоме (сборнике)
Приватный:
Нет (DHT включён)
Размер:
199.14 Мб (208,818,185 байт) » файлов: 15
Участники:
0 раздают, 0 качают (0 участников всего)
Внешние участники:
1 раздают, 0 качают (1 участников всего) [ Обновить ]
Есть вопросы - пишите личное сообщение пользователю M0p94ok.
15:14
77
Нет комментариев. Ваш будет первым!