Поиск

(Rhythm & Blues, Soul, Funk) [CD] Charles Wright & The Watts 103rd Street Rhythm Band - Live At The Haunted House : May 18, 1968 - 2008 (2CD Limited Edition), FLAC (tracks+.cue), lossless

(Rhythm & Blues, Soul, Funk) [CD] Charles Wright & The Watts 103rd Street Rhythm Band - Live At The Haunted House : May 18, 1968 - 2008 (2CD Limited Edition), FLAC (tracks+.cue), lossless
Треклист:
Charles Wright & The Watts 103rd Street Rhythm Band / Live At The Haunted House : May 18, 1968
Жанр: Rhythm & Blues, Soul, Funk
Носитель: CD
Страна-производитель диска (релиза): USA
Год издания: 2008
Издатель (лейбл): Rhino Handmade
Номер по каталогу: RHM2 7771
Аудиокодек: FLAC (*.flac)
Тип рипа: tracks+.cue
Битрейт аудио: lossless
Продолжительность: 02:30:23
Источник (релизер): israbox
Наличие сканов в содержимом раздачи: нет
 
CD 1
01. Intro
02. The Joker
03. Get Ready
04. Come See About Me
05. Papa's Got A Brand New Bag
06. I Can't Turn You Loose
07. Philly Dog
08. Ain't Too Proud To Beg / (I Know I'm) Losing You
09. Mustang Sally
10. I Can't Turn You Loose (Reprise)
11. Intro To Set 2
12. Something You Got
1. Dance To The Music
14. Fried Neck Bones
15. (Sittin' On) The Dock Of The Bay
16. (Your Love Keeps Lifting Me) Higher And Higher
17. Bottomless
18. Stormy Monday
 
Лог создания рипа
Exact Audio Copy V0.99 prebeta 5 from 4. May 2009
EAC extraction logfile from 11. December 2010, 21:11
Charles Wright & The Watts 103rd Street Rhythm Band / Live At The Haunted House - May 18, 1968 [Disc 1]
Used drive : ASUS DRW-24B1ST Adapter: 2 ID: 0
Read mode : Secure
Utilize accurate stream : Yes
Defeat audio cache : Yes
Make use of C2 pointers : No
Read offset correction : 6
Overread into Lead-In and Lead-Out : No
Fill up missing offset samples with silence : Yes
Delete leading and trailing silent blocks : No
Null samples used in CRC calculations : No
Used interface : Native Win32 interface for Win NT & 2000
Gap handling : Appended to previous track
Used output format : User Defined Encoder
Selected bitrate : 320 kBit/s
Quality : High
Add ID3 tag : No
Command line compressor : C:\Program Files\FLAC\flac.exe
Additional command line options : -V -8 -T "artist=%a" -T "title=%t" -T "album=%g" -T "date=%y" -T "tracknumber=%n" -T "genre=%m" %s
TOC of the extracted CD
Track | Start | Length | Start sector | End sector
---------------------------------------------------------
1 | 0:00.00 | 1:11.17 | 0 | 5341
2 | 1:11.17 | 3:33.47 | 5342 | 21363
3 | 4:44.64 | 5:50.19 | 21364 | 47632
4 | 10:35.08 | 7:35.23 | 47633 | 81780
5 | 18:10.31 | 10:47.38 | 81781 | 130343
6 | 28:57.69 | 3:20.08 | 130344 | 145351
7 | 32:18.02 | 3:00.50 | 145352 | 158901
8 | 35:18.52 | 5:03.49 | 158902 | 181675
9 | 40:22.26 | 4:20.41 | 181676 | 201216
10 | 44:42.67 | 0:25.57 | 201217 | 203148
11 | 45:08.49 | 0:48.69 | 203149 | 206817
12 | 45:57.43 | 4:51.32 | 206818 | 228674
13 | 50:49.00 | 3:06.14 | 228675 | 242638
14 | 53:55.14 | 4:32.70 | 242639 | 263108
15 | 58:28.09 | 4:09.32 | 263109 | 281815
16 | 62:37.41 | 4:14.42 | 281816 | 300907
17 | 66:52.08 | 6:31.56 | 300908 | 330288
18 | 73:23.64 | 5:28.71 | 330289 | 354959
Track 1
Filename E:\EACrips\01 - Charles Wright & The Watts 103rd Street Rhythm Band - Intro.wav
Pre-gap length 0:00:02.00
Peak level 86.9 %
Track quality 100.0 %
Test CRC 124650A3
Copy CRC 124650A3
Accurately ripped (confidence 2) [76BA4CA5]
Copy OK
Track 2
Filename E:\EACrips\02 - Charles Wright & The Watts 103rd Street Rhythm Band - The Joker.wav
Peak level 94.3 %
Track quality 100.0 %
Test CRC 0785205F
Copy CRC 0785205F
Accurately ripped (confidence 2) [C7E5F9C3]
Copy OK
Track 3
Filename E:\EACrips\03 - Charles Wright & The Watts 103rd Street Rhythm Band - Get Ready.wav
Peak level 79.2 %
Track quality 100.0 %
Test CRC 9A569398
Copy CRC 9A569398
Accurately ripped (confidence 2) [2D9867CE]
Copy OK
Track 4
Filename E:\EACrips\04 - Charles Wright & The Watts 103rd Street Rhythm Band - Come See About Me.wav
Peak level 79.2 %
Track quality 100.0 %
Test CRC 29E47D84
Copy CRC 29E47D84
Accurately ripped (confidence 2) [CA0088FE]
Copy OK
Track 5
Filename E:\EACrips\05 - Charles Wright & The Watts 103rd Street Rhythm Band - Papa'a Got A Brand New Bag.wav
Peak level 79.2 %
Track quality 99.9 %
Test CRC D82B7C6D
Copy CRC D82B7C6D
Accurately ripped (confidence 2) [6D92BB52]
Copy OK
Track 6
Filename E:\EACrips\06 - Charles Wright & The Watts 103rd Street Rhythm Band - I Can't Turn You Loose.wav
Peak level 79.2 %
Track quality 100.0 %
Test CRC B321DECE
Copy CRC B321DECE
Accurately ripped (confidence 2) [C5036A8F]
Copy OK
Track 7
Filename E:\EACrips\07 - Charles Wright & The Watts 103rd Street Rhythm Band - Philly Dog.wav
Peak level 79.2 %
Track quality 99.9 %
Test CRC 7161EDE2
Copy CRC 7161EDE2
Accurately ripped (confidence 2) [1BF117CA]
Copy OK
Track 8
Filename E:\EACrips\08 - Charles Wright & The Watts 103rd Street Rhythm Band - Ain't Too Proud To Beg,(I Know) I'm Losing You.wav
Peak level 79.2 %
Track quality 100.0 %
Test CRC EF1630D6
Copy CRC EF1630D6
Accurately ripped (confidence 2) [45B5C9E3]
Copy OK
Track 9
Filename E:\EACrips\09 - Charles Wright & The Watts 103rd Street Rhythm Band - Mustang Sally.wav
Peak level 75.9 %
Track quality 100.0 %
Test CRC 632FBC7C
Copy CRC 632FBC7C
Accurately ripped (confidence 2) [08B486A4]
Copy OK
Track 10
Filename E:\EACrips\10 - Charles Wright & The Watts 103rd Street Rhythm Band - I Can't Turn You Loose (Reprise).wav
Peak level 75.0 %
Track quality 100.0 %
Test CRC B4826D98
Copy CRC B4826D98
Accurately ripped (confidence 2) [6E3B917F]
Copy OK
Track 11
Filename E:\EACrips\11 - Charles Wright & The Watts 103rd Street Rhythm Band - Intro to Set 2.wav
Peak level 88.3 %
Track quality 100.0 %
Test CRC E679E6E8
Copy CRC E679E6E8
Accurately ripped (confidence 2) [71D02B0E]
Copy OK
Track 12
Filename E:\EACrips\12 - Charles Wright & The Watts 103rd Street Rhythm Band - Something You Got.wav
Peak level 94.6 %
Track quality 100.0 %
Test CRC A7D647AD
Copy CRC A7D647AD
Accurately ripped (confidence 2) [63E5ED86]
Copy OK
Track 13
Filename E:\EACrips\13 - Charles Wright & The Watts 103rd Street Rhythm Band - Dance To The Music.wav
Peak level 95.4 %
Track quality 100.0 %
Test CRC 56B90953
Copy CRC 56B90953
Accurately ripped (confidence 2) [80C4AF08]
Copy OK
Track 14
Filename E:\EACrips\14 - Charles Wright & The Watts 103rd Street Rhythm Band - Fried Neck Bones.wav
Peak level 88.4 %
Track quality 99.9 %
Test CRC B169EFA3
Copy CRC B169EFA3
Accurately ripped (confidence 2) [464E2632]
Copy OK
Track 15
Filename E:\EACrips\15 - Charles Wright & The Watts 103rd Street Rhythm Band - (Sittin' On) The Dock Of The Bay.wav
Peak level 67.6 %
Track quality 100.0 %
Test CRC 5C1CD38D
Copy CRC 5C1CD38D
Accurately ripped (confidence 2) [3ED28AED]
Copy OK
Track 16
Filename E:\EACrips\16 - Charles Wright & The Watts 103rd Street Rhythm Band - (Your Love Keeps Lifting Me) Higher And Higher.wav
Peak level 93.2 %
Track quality 100.0 %
Test CRC AA9347EE
Copy CRC AA9347EE
Accurately ripped (confidence 2) [DAFD1601]
Copy OK
Track 17
Filename E:\EACrips\17 - Charles Wright & The Watts 103rd Street Rhythm Band - Bottomless.wav
Peak level 92.6 %
Track quality 100.0 %
Test CRC ECB245F6
Copy CRC ECB245F6
Accurately ripped (confidence 2) [AB7D10ED]
Copy OK
Track 18
Filename E:\EACrips\18 - Charles Wright & The Watts 103rd Street Rhythm Band - Stormy Monday.wav
Peak level 94.7 %
Track quality 100.0 %
Test CRC 085650D1
Copy CRC 085650D1
Accurately ripped (confidence 2) [AE0253D0]
Copy OK
All tracks accurately ripped
No errors occurred
End of status report
 
Содержание индексной карты (.CUE)
REM GENRE Funk
REM DATE 2008
REM DISCID EF127C12
REM COMMENT "ExactAudioCopy v0.99pb5"
PERFORMER "Charles Wright & The Watts 103rd Street Rhythm Band"
TITLE "Live At The Haunted House - May 18, 1968 [Disc 1]"
FILE "01 - Charles Wright & The Watts 103rd Street Rhythm Band - Intro.wav" WAVE
TRACK 01 AUDIO
TITLE "Intro"
PERFORMER "Charles Wright & The Watts 103rd Street Rhythm Band"
INDEX 01 00:00:00
FILE "02 - Charles Wright & The Watts 103rd Street Rhythm Band - The Joker.wav" WAVE
TRACK 02 AUDIO
TITLE "The Joker"
PERFORMER "Charles Wright & The Watts 103rd Street Rhythm Band"
INDEX 01 00:00:00
FILE "03 - Charles Wright & The Watts 103rd Street Rhythm Band - Get Ready.wav" WAVE
TRACK 03 AUDIO
TITLE "Get Ready"
PERFORMER "Charles Wright & The Watts 103rd Street Rhythm Band"
INDEX 01 00:00:00
FILE "04 - Charles Wright & The Watts 103rd Street Rhythm Band - Come See About Me.wav" WAVE
TRACK 04 AUDIO
TITLE "Come See About Me"
PERFORMER "Charles Wright & The Watts 103rd Street Rhythm Band"
INDEX 01 00:00:00
FILE "05 - Charles Wright & The Watts 103rd Street Rhythm Band - Papa'a Got A Brand New Bag.wav" WAVE
TRACK 05 AUDIO
TITLE "Papa'a Got A Brand New Bag"
PERFORMER "Charles Wright & The Watts 103rd Street Rhythm Band"
INDEX 01 00:00:00
FILE "06 - Charles Wright & The Watts 103rd Street Rhythm Band - I Can't Turn You Loose.wav" WAVE
TRACK 06 AUDIO
TITLE "I Can't Turn You Loose"
PERFORMER "Charles Wright & The Watts 103rd Street Rhythm Band"
INDEX 01 00:00:00
FILE "07 - Charles Wright & The Watts 103rd Street Rhythm Band - Philly Dog.wav" WAVE
TRACK 07 AUDIO
TITLE "Philly Dog"
PERFORMER "Charles Wright & The Watts 103rd Street Rhythm Band"
INDEX 01 00:00:00
FILE "08 - Charles Wright & The Watts 103rd Street Rhythm Band - Ain't Too Proud To Beg,(I Know) I'm Losing You.wav" WAVE
TRACK 08 AUDIO
TITLE "Ain't Too Proud To Beg/(I Know) I'm Losing You"
PERFORMER "Charles Wright & The Watts 103rd Street Rhythm Band"
INDEX 01 00:00:00
FILE "09 - Charles Wright & The Watts 103rd Street Rhythm Band - Mustang Sally.wav" WAVE
TRACK 09 AUDIO
TITLE "Mustang Sally"
PERFORMER "Charles Wright & The Watts 103rd Street Rhythm Band"
INDEX 01 00:00:00
FILE "10 - Charles Wright & The Watts 103rd Street Rhythm Band - I Can't Turn You Loose (Reprise).wav" WAVE
TRACK 10 AUDIO
TITLE "I Can't Turn You Loose (Reprise)"
PERFORMER "Charles Wright & The Watts 103rd Street Rhythm Band"
INDEX 01 00:00:00
FILE "11 - Charles Wright & The Watts 103rd Street Rhythm Band - Intro to Set 2.wav" WAVE
TRACK 11 AUDIO
TITLE "Intro to Set 2"
PERFORMER "Charles Wright & The Watts 103rd Street Rhythm Band"
INDEX 01 00:00:00
FILE "12 - Charles Wright & The Watts 103rd Street Rhythm Band - Something You Got.wav" WAVE
TRACK 12 AUDIO
TITLE "Something You Got"
PERFORMER "Charles Wright & The Watts 103rd Street Rhythm Band"
INDEX 01 00:00:00
FILE "13 - Charles Wright & The Watts 103rd Street Rhythm Band - Dance To The Music.wav" WAVE
TRACK 13 AUDIO
TITLE "Dance To The Music"
PERFORMER "Charles Wright & The Watts 103rd Street Rhythm Band"
INDEX 01 00:00:00
FILE "14 - Charles Wright & The Watts 103rd Street Rhythm Band - Fried Neck Bones.wav" WAVE
TRACK 14 AUDIO
TITLE "Fried Neck Bones"
PERFORMER "Charles Wright & The Watts 103rd Street Rhythm Band"
INDEX 01 00:00:00
FILE "15 - Charles Wright & The Watts 103rd Street Rhythm Band - (Sittin' On) The Dock Of The Bay.wav" WAVE
TRACK 15 AUDIO
TITLE "(Sittin' On) The Dock Of The Bay"
PERFORMER "Charles Wright & The Watts 103rd Street Rhythm Band"
INDEX 01 00:00:00
FILE "16 - Charles Wright & The Watts 103rd Street Rhythm Band - (Your Love Keeps Lifting Me) Higher And Higher.wav" WAVE
TRACK 16 AUDIO
TITLE "(Your Love Keeps Lifting Me) Higher And Higher"
PERFORMER "Charles Wright & The Watts 103rd Street Rhythm Band"
INDEX 01 00:00:00
FILE "17 - Charles Wright & The Watts 103rd Street Rhythm Band - Bottomless.wav" WAVE
TRACK 17 AUDIO
TITLE "Bottomless"
PERFORMER "Charles Wright & The Watts 103rd Street Rhythm Band"
INDEX 01 00:00:00
FILE "18 - Charles Wright & The Watts 103rd Street Rhythm Band - Stormy Monday.wav" WAVE
TRACK 18 AUDIO
TITLE "Stormy Monday"
PERFORMER "Charles Wright & The Watts 103rd Street Rhythm Band"
INDEX 01 00:00:00
 
DR Log
foobar2000 1.1.10 / Dynamic Range Meter 1.1.1
log date: 2016-12-24 08:40:06
--------------------------------------------------------------------------------
Analyzed: Charles Wright & The Watts 103rd Street Rhythm Band / Live At The Haunted House - May 18, 1968 [Disc 1]
--------------------------------------------------------------------------------
DR Peak RMS Duration Track
--------------------------------------------------------------------------------
DR21 -1.22 dB -28.04 dB 1:11 ?-Intro
DR13 -0.51 dB -15.27 dB 3:34 ?-The Joker
DR8 -2.02 dB -13.15 dB 5:50 ?-Get Ready
DR9 -2.02 dB -14.56 dB 7:35 ?-Come See About Me
DR8 -2.02 dB -12.69 dB 10:48 ?-Papa'a Got A Brand New Bag
DR10 -2.02 dB -13.87 dB 3:20 ?-I Can't Turn You Loose
DR9 -2.02 dB -12.89 dB 3:01 ?-Philly Dog
DR8 -2.02 dB -11.36 dB 5:04 ?-Ain't Too Proud To Beg/(I Know) I'm Losing You
DR11 -2.38 dB -15.61 dB 4:21 ?-Mustang Sally
DR11 -2.49 dB -16.59 dB 0:26 ?-I Can't Turn You Loose (Reprise)
DR15 -1.07 dB -23.13 dB 0:49 ?-Intro to Set 2
DR11 -0.48 dB -16.87 dB 4:51 ?-Something You Got
DR9 -0.41 dB -12.25 dB 3:06 ?-Dance To The Music
DR14 -1.07 dB -19.34 dB 4:33 ?-Fried Neck Bones
DR12 -3.40 dB -19.74 dB 4:09 ?-(Sittin' On) The Dock Of The Bay
DR11 -0.61 dB -13.87 dB 4:15 ?-(Your Love Keeps Lifting Me) Higher And Higher
DR12 -0.66 dB -15.14 dB 6:32 ?-Bottomless
DR12 -0.47 dB -16.80 dB 5:29 ?-Stormy Monday
--------------------------------------------------------------------------------
Number of tracks: 18
Official DR value: DR11
Samplerate: 44100 Hz
Channels: 2
Bits per sample: 16
Bitrate: 775 kbps
Codec: FLAC
================================================================================
 
CD 2
01. Respect / Satisfaction
02. Day Tripper
03. Funky Broadway
04. Do Your Thing
05. Band Intros
06. (I Wanna) Testify
07. I Can't Turn You Loose (Reprise)
08. Sweet Lorene
09. Just A Little Misunderstanding
10. I've Been Loving You Too Long (To Stop Now)
11. Knock On Wood
12. (I'm A) Road Dunner
13. Try A Little Tenderness
14. Papa's Got A Brand New Bag (Version 2)
15. Something You Got (Version 2)
16. Beauty Is Only Skin Deep
17. Since I Lost My Baby
18. Stand By Me
19. You're A Winner / I Can't Turn You Loose
 
Лог создания рипа
Exact Audio Copy V0.99 prebeta 5 from 4. May 2009
EAC extraction logfile from 11. December 2010, 22:22
Charles Wright & The Watts 103rd Street Rhythm Band / Live At The Haunted House - May 18, 1968 [Disc 2]
Used drive : ASUS DRW-24B1ST Adapter: 2 ID: 0
Read mode : Secure
Utilize accurate stream : Yes
Defeat audio cache : Yes
Make use of C2 pointers : No
Read offset correction : 6
Overread into Lead-In and Lead-Out : No
Fill up missing offset samples with silence : Yes
Delete leading and trailing silent blocks : No
Null samples used in CRC calculations : No
Used interface : Native Win32 interface for Win NT & 2000
Gap handling : Appended to previous track
Used output format : User Defined Encoder
Selected bitrate : 320 kBit/s
Quality : High
Add ID3 tag : No
Command line compressor : C:\Program Files\FLAC\flac.exe
Additional command line options : -V -8 -T "artist=%a" -T "title=%t" -T "album=%g" -T "date=%y" -T "tracknumber=%n" -T "genre=%m" %s
TOC of the extracted CD
Track | Start | Length | Start sector | End sector
---------------------------------------------------------
1 | 0:00.00 | 5:42.18 | 0 | 25667
2 | 5:42.18 | 0:36.17 | 25668 | 28384
3 | 6:18.35 | 3:55.50 | 28385 | 46059
4 | 10:14.10 | 3:27.21 | 46060 | 61605
5 | 13:41.31 | 3:48.50 | 61606 | 78755
6 | 17:30.06 | 2:47.12 | 78756 | 91292
7 | 20:17.18 | 1:45.32 | 91293 | 99199
8 | 22:02.50 | 1:54.32 | 99200 | 107781
9 | 23:57.07 | 3:23.68 | 107782 | 123074
10 | 27:21.00 | 5:30.59 | 123075 | 147883
11 | 32:51.59 | 2:54.62 | 147884 | 160995
12 | 35:46.46 | 3:49.26 | 160996 | 178196
13 | 39:35.72 | 3:44.06 | 178197 | 195002
14 | 43:20.03 | 6:24.40 | 195003 | 223842
15 | 49:44.43 | 4:40.38 | 223843 | 244880
16 | 54:25.06 | 3:41.40 | 244881 | 261495
17 | 58:06.46 | 4:17.36 | 261496 | 280806
18 | 62:24.07 | 3:39.43 | 280807 | 297274
19 | 66:03.50 | 5:26.51 | 297275 | 321775
Track 1
Filename E:\EACrips\01 - Charles Wright & The Watts 103rd Street Rhythm Band - Respect,Satisfaction.wav
Pre-gap length 0:00:02.00
Peak level 91.1 %
Track quality 100.0 %
Test CRC 6896B4DB
Copy CRC 6896B4DB
Accurately ripped (confidence 2) [F7A02750]
Copy OK
Track 2
Filename E:\EACrips\02 - Charles Wright & The Watts 103rd Street Rhythm Band - Day Tripper.wav
Peak level 66.5 %
Track quality 100.0 %
Test CRC F6BCBEA6
Copy CRC F6BCBEA6
Accurately ripped (confidence 2) [DB1FACBD]
Copy OK
Track 3
Filename E:\EACrips\03 - Charles Wright & The Watts 103rd Street Rhythm Band - Funky Broadway.wav
Peak level 75.1 %
Track quality 100.0 %
Test CRC 09C17543
Copy CRC 09C17543
Accurately ripped (confidence 2) [6E2EA238]
Copy OK
Track 4
Filename E:\EACrips\04 - Charles Wright & The Watts 103rd Street Rhythm Band - Do Your Thing.wav
Peak level 69.6 %
Track quality 100.0 %
Test CRC 2FF00AC6
Copy CRC 2FF00AC6
Accurately ripped (confidence 2) [AEFC0CDE]
Copy OK
Track 5
Filename E:\EACrips\05 - Charles Wright & The Watts 103rd Street Rhythm Band - Band Intros.wav
Peak level 85.8 %
Track quality 100.0 %
Test CRC CE4F77AA
Copy CRC CE4F77AA
Accurately ripped (confidence 2) [E0C3303B]
Copy OK
Track 6
Filename E:\EACrips\06 - Charles Wright & The Watts 103rd Street Rhythm Band - (I Wanna) Testify.wav
Peak level 94.7 %
Track quality 100.0 %
Test CRC FD1C3A3A
Copy CRC FD1C3A3A
Accurately ripped (confidence 2) [E8E47EC7]
Copy OK
Track 7
Filename E:\EACrips\07 - Charles Wright & The Watts 103rd Street Rhythm Band - I Can't Turn You Loose (Reprise).wav
Peak level 98.7 %
Track quality 100.0 %
Test CRC F96032DA
Copy CRC F96032DA
Accurately ripped (confidence 2) [F2FDBC33]
Copy OK
Track 8
Filename E:\EACrips\08 - Charles Wright & The Watts 103rd Street Rhythm Band - Sweet Lorene.wav
Peak level 91.7 %
Track quality 100.0 %
Test CRC F5DCB86C
Copy CRC F5DCB86C
Accurately ripped (confidence 2) [F4C04325]
Copy OK
Track 9
Filename E:\EACrips\09 - Charles Wright & The Watts 103rd Street Rhythm Band - Just A Little Misunderstanding.wav
Peak level 86.3 %
Track quality 100.0 %
Test CRC DE41FE7E
Copy CRC DE41FE7E
Accurately ripped (confidence 2) [3B55C7A1]
Copy OK
Track 10
Filename E:\EACrips\10 - Charles Wright & The Watts 103rd Street Rhythm Band - I've Been Loving You Too Long (To Stop Now).wav
Peak level 92.6 %
Track quality 100.0 %
Test CRC DFD8C80A
Copy CRC DFD8C80A
Accurately ripped (confidence 2) [B3825A46]
Copy OK
Track 11
Filename E:\EACrips\11 - Charles Wright & The Watts 103rd Street Rhythm Band - Knock On Wood.wav
Peak level 97.5 %
Track quality 100.0 %
Test CRC 81138612
Copy CRC 81138612
Accurately ripped (confidence 2) [2B57C549]
Copy OK
Track 12
Filename E:\EACrips\12 - Charles Wright & The Watts 103rd Street Rhythm Band - (I'm A) Road Runner.wav
Peak level 96.5 %
Track quality 100.0 %
Test CRC 17705C11
Copy CRC 17705C11
Accurately ripped (confidence 2) [B835164D]
Copy OK
Track 13
Filename E:\EACrips\13 - Charles Wright & The Watts 103rd Street Rhythm Band - Try A Little Tenderness.wav
Peak level 86.9 %
Track quality 100.0 %
Test CRC 3E0C649E
Copy CRC 3E0C649E
Accurately ripped (confidence 2) [6AD76AE5]
Copy OK
Track 14
Filename E:\EACrips\14 - Charles Wright & The Watts 103rd Street Rhythm Band - Papa's Got A Brand New Bag (Version 2).wav
Peak level 99.8 %
Track quality 99.9 %
Test CRC 07CBC02D
Copy CRC 07CBC02D
Accurately ripped (confidence 2) [3451AE42]
Copy OK
Track 15
Filename E:\EACrips\15 - Charles Wright & The Watts 103rd Street Rhythm Band - Something You Got (Version 2).wav
Peak level 95.0 %
Track quality 100.0 %
Test CRC F1B35798
Copy CRC F1B35798
Accurately ripped (confidence 2) [AD48AC70]
Copy OK
Track 16
Filename E:\EACrips\16 - Charles Wright & The Watts 103rd Street Rhythm Band - Beauty Is Only Skin Deep.wav
Peak level 92.4 %
Track quality 100.0 %
Test CRC 2FE2976D
Copy CRC 2FE2976D
Accurately ripped (confidence 2) [EC81197C]
Copy OK
Track 17
Filename E:\EACrips\17 - Charles Wright & The Watts 103rd Street Rhythm Band - Since I Lost My Baby.wav
Peak level 86.9 %
Track quality 100.0 %
Test CRC 24FEF635
Copy CRC 24FEF635
Accurately ripped (confidence 2) [7E101BDC]
Copy OK
Track 18
Filename E:\EACrips\18 - Charles Wright & The Watts 103rd Street Rhythm Band - Stand By Me.wav
Peak level 91.9 %
Track quality 100.0 %
Test CRC FDBAC093
Copy CRC FDBAC093
Accurately ripped (confidence 2) [B59B6DDC]
Copy OK
Track 19
Filename E:\EACrips\19 - Charles Wright & The Watts 103rd Street Rhythm Band - We're A Winner,I Can't Turn You Loose (Reprise).wav
Peak level 95.3 %
Track quality 100.0 %
Test CRC 02F1A0FE
Copy CRC 02F1A0FE
Accurately ripped (confidence 2) [263D79DD]
Copy OK
All tracks accurately ripped
No errors occurred
End of status report
 
Содержание индексной карты (.CUE)
REM GENRE Funk
REM DATE 2008
REM DISCID 1E10C213
REM COMMENT "ExactAudioCopy v0.99pb5"
PERFORMER "Charles Wright & The Watts 103rd Street Rhythm Band"
TITLE "Live At The Haunted House - May 18, 1968 [Disc 2]"
FILE "01 - Charles Wright & The Watts 103rd Street Rhythm Band - Respect,Satisfaction.wav" WAVE
TRACK 01 AUDIO
TITLE "Respect/Satisfaction"
PERFORMER "Charles Wright & The Watts 103rd Street Rhythm Band"
INDEX 01 00:00:00
FILE "02 - Charles Wright & The Watts 103rd Street Rhythm Band - Day Tripper.wav" WAVE
TRACK 02 AUDIO
TITLE "Day Tripper"
PERFORMER "Charles Wright & The Watts 103rd Street Rhythm Band"
INDEX 01 00:00:00
FILE "03 - Charles Wright & The Watts 103rd Street Rhythm Band - Funky Broadway.wav" WAVE
TRACK 03 AUDIO
TITLE "Funky Broadway"
PERFORMER "Charles Wright & The Watts 103rd Street Rhythm Band"
INDEX 01 00:00:00
FILE "04 - Charles Wright & The Watts 103rd Street Rhythm Band - Do Your Thing.wav" WAVE
TRACK 04 AUDIO
TITLE "Do Your Thing"
PERFORMER "Charles Wright & The Watts 103rd Street Rhythm Band"
INDEX 01 00:00:00
FILE "05 - Charles Wright & The Watts 103rd Street Rhythm Band - Band Intros.wav" WAVE
TRACK 05 AUDIO
TITLE "Band Intros"
PERFORMER "Charles Wright & The Watts 103rd Street Rhythm Band"
INDEX 01 00:00:00
FILE "06 - Charles Wright & The Watts 103rd Street Rhythm Band - (I Wanna) Testify.wav" WAVE
TRACK 06 AUDIO
TITLE "(I Wanna) Testify"
PERFORMER "Charles Wright & The Watts 103rd Street Rhythm Band"
INDEX 01 00:00:00
FILE "07 - Charles Wright & The Watts 103rd Street Rhythm Band - I Can't Turn You Loose (Reprise).wav" WAVE
TRACK 07 AUDIO
TITLE "I Can't Turn You Loose (Reprise)"
PERFORMER "Charles Wright & The Watts 103rd Street Rhythm Band"
INDEX 01 00:00:00
FILE "08 - Charles Wright & The Watts 103rd Street Rhythm Band - Sweet Lorene.wav" WAVE
TRACK 08 AUDIO
TITLE "Sweet Lorene"
PERFORMER "Charles Wright & The Watts 103rd Street Rhythm Band"
INDEX 01 00:00:00
FILE "09 - Charles Wright & The Watts 103rd Street Rhythm Band - Just A Little Misunderstanding.wav" WAVE
TRACK 09 AUDIO
TITLE "Just A Little Misunderstanding"
PERFORMER "Charles Wright & The Watts 103rd Street Rhythm Band"
INDEX 01 00:00:00
FILE "10 - Charles Wright & The Watts 103rd Street Rhythm Band - I've Been Loving You Too Long (To Stop Now).wav" WAVE
TRACK 10 AUDIO
TITLE "I've Been Loving You Too Long (To Stop Now)"
PERFORMER "Charles Wright & The Watts 103rd Street Rhythm Band"
INDEX 01 00:00:00
FILE "11 - Charles Wright & The Watts 103rd Street Rhythm Band - Knock On Wood.wav" WAVE
TRACK 11 AUDIO
TITLE "Knock On Wood"
PERFORMER "Charles Wright & The Watts 103rd Street Rhythm Band"
INDEX 01 00:00:00
FILE "12 - Charles Wright & The Watts 103rd Street Rhythm Band - (I'm A) Road Runner.wav" WAVE
TRACK 12 AUDIO
TITLE "(I'm A) Road Runner"
PERFORMER "Charles Wright & The Watts 103rd Street Rhythm Band"
INDEX 01 00:00:00
FILE "13 - Charles Wright & The Watts 103rd Street Rhythm Band - Try A Little Tenderness.wav" WAVE
TRACK 13 AUDIO
TITLE "Try A Little Tenderness"
PERFORMER "Charles Wright & The Watts 103rd Street Rhythm Band"
INDEX 01 00:00:00
FILE "14 - Charles Wright & The Watts 103rd Street Rhythm Band - Papa's Got A Brand New Bag (Version 2).wav" WAVE
TRACK 14 AUDIO
TITLE "Papa's Got A Brand New Bag (Version 2)"
PERFORMER "Charles Wright & The Watts 103rd Street Rhythm Band"
INDEX 01 00:00:00
FILE "15 - Charles Wright & The Watts 103rd Street Rhythm Band - Something You Got (Version 2).wav" WAVE
TRACK 15 AUDIO
TITLE "Something You Got (Version 2)"
PERFORMER "Charles Wright & The Watts 103rd Street Rhythm Band"
INDEX 01 00:00:00
FILE "16 - Charles Wright & The Watts 103rd Street Rhythm Band - Beauty Is Only Skin Deep.wav" WAVE
TRACK 16 AUDIO
TITLE "Beauty Is Only Skin Deep"
PERFORMER "Charles Wright & The Watts 103rd Street Rhythm Band"
INDEX 01 00:00:00
FILE "17 - Charles Wright & The Watts 103rd Street Rhythm Band - Since I Lost My Baby.wav" WAVE
TRACK 17 AUDIO
TITLE "Since I Lost My Baby"
PERFORMER "Charles Wright & The Watts 103rd Street Rhythm Band"
INDEX 01 00:00:00
FILE "18 - Charles Wright & The Watts 103rd Street Rhythm Band - Stand By Me.wav" WAVE
TRACK 18 AUDIO
TITLE "Stand By Me"
PERFORMER "Charles Wright & The Watts 103rd Street Rhythm Band"
INDEX 01 00:00:00
FILE "19 - Charles Wright & The Watts 103rd Street Rhythm Band - We're A Winner,I Can't Turn You Loose (Reprise).wav" WAVE
TRACK 19 AUDIO
TITLE "We're A Winner/I Can't Turn You Loose (Reprise)"
PERFORMER "Charles Wright & The Watts 103rd Street Rhythm Band"
INDEX 01 00:00:00
 
DR Log
foobar2000 1.1.10 / Dynamic Range Meter 1.1.1
log date: 2016-12-24 08:42:17
--------------------------------------------------------------------------------
Analyzed: Charles Wright & The Watts 103rd Street Rhythm Band / Live At The Haunted House - May 18, 1968 [Disc 2]
--------------------------------------------------------------------------------
DR Peak RMS Duration Track
--------------------------------------------------------------------------------
DR12 -0.81 dB -16.14 dB 5:42 ?-Respect/Satisfaction
DR13 -3.53 dB -20.70 dB 0:36 ?-Day Tripper
DR15 -2.48 dB -20.71 dB 3:56 ?-Funky Broadway
DR15 -3.14 dB -21.65 dB 3:27 ?-Do Your Thing
DR14 -1.32 dB -18.40 dB 3:49 ?-Band Intros
DR11 -0.47 dB -13.67 dB 2:47 ?-(I Wanna) Testify
DR10 -0.11 dB -16.14 dB 1:45 ?-I Can't Turn You Loose (Reprise)
DR12 -0.75 dB -15.49 dB 1:54 ?-Sweet Lorene
DR11 -1.27 dB -14.79 dB 3:24 ?-Just A Little Misunderstanding
DR11 -0.66 dB -18.06 dB 5:31 ?-I've Been Loving You Too Long (To Stop Now)
DR11 -0.22 dB -14.46 dB 2:55 ?-Knock On Wood
DR10 -0.31 dB -13.91 dB 3:49 ?-(I'm A) Road Runner
DR12 -1.21 dB -17.91 dB 3:44 ?-Try A Little Tenderness
DR10 -0.01 dB -13.81 dB 6:25 ?-Papa's Got A Brand New Bag (Version 2)
DR11 -0.44 dB -15.45 dB 4:41 ?-Something You Got (Version 2)
DR13 -0.68 dB -17.67 dB 3:42 ?-Beauty Is Only Skin Deep
DR12 -1.21 dB -16.62 dB 4:17 ?-Since I Lost My Baby
DR13 -0.73 dB -18.38 dB 3:40 ?-Stand By Me
DR12 -0.41 dB -15.73 dB 5:27 ?-We're A Winner/I Can't Turn You Loose (Reprise)
--------------------------------------------------------------------------------
Number of tracks: 19
Official DR value: DR12
Samplerate: 44100 Hz
Channels: 2
Bits per sample: 16
Bitrate: 874 kbps
Codec: FLAC
================================================================================
 
Состав
Bass – Melvin Dunlap
Drums, Vocals – James Gadson
Guitar, Vocals – Al McKay, Charles Wright
Liner Notes – Oliver Wang
Tenor Saxophone – Bill Cannon, John Rayford
Trombone, Percussion [Congas] – Ray Jackson
Trumpet – Gabriel Flemings
 
Об альбоме (сборнике)
When Charles Wright & The Watts 103rd Street Rhythm Band took the stage at the storied-and long-gone-Hollywood nightclub the Haunted House on a spring night in 1968 to record a live album, they were already a regularly-scheduled house favorite at the venue. Mixed from the original 4-track tapes, Rhino Handmade's 2-CD live recording LIVE AT THE HAUNTED HOUSE captures the well-oiled band in top form, pumping out funk and soul for the masses pounding the dancefloor and making the scene. It also represents the group at a watershed moment, as they began to evolve from a dance band into a crea
Limited to 5000 numbered copies.
Приватный:
Нет (DHT включён)
Размер:
927.17 Мб (972,209,593 байт) » файлов: 44
Участники:
0 раздают, 0 качают (0 участников всего)
Внешние участники:
1 раздают, 0 качают (1 участников всего) [ Обновить ]
Есть вопросы - пишите личное сообщение пользователю M0p94ok.
12:31
79
Нет комментариев. Ваш будет первым!