Поиск

(Funk, Soul, Jazz Vocal) [CD] Lorraine Ellison - Sister Love: The Warner Bros. Recordings - 2006 (3CD Limited Edition), FLAC (tracks+.cue), lossless

(Funk, Soul, Jazz Vocal) [CD] Lorraine Ellison - Sister Love: The Warner Bros. Recordings - 2006 (3CD Limited Edition), FLAC (tracks+.cue), lossless
Треклист:
Lorraine Ellison / Sister Love: The Warner Bros. Recordings
Жанр: Funk, Soul, Jazz Vocal
Носитель: CD
Страна-производитель диска (релиза): USA
Год издания: 2006
Издатель (лейбл): Rhino Handmade
Номер по каталогу: RHM2 7717
Аудиокодек: FLAC (*.flac)
Тип рипа: tracks+.cue
Битрейт аудио: lossless
Продолжительность: 03:48:26
Источник (релизер): DP
Наличие сканов в содержимом раздачи: да
 
CD 1
01. I Got My Baby Back (Single Version) (2:19)
02. Stay With Me (Mono Single Version) (3:31)
03. Heart And Soul (3:05)
04. Games That People Play (Eine Ganze Nacht) (2:31)
05. He's My Guy (2:48)
06. What A Difference A Day Makes (3:03)
07. A Change Is Gonna Come (3:32)
08. If I Had A Hammer (The Hammer Song) (2:18)
09. When Loves Flies Away (Single Version) (3:11)
10. Cry Me A River (Single Version) (3:02)
11. What Is A Woman (3:01)
12. That's For Me (2:35)
13. My Man's Gone Now (3:21)
14. Ain't That Peculiar (2:54)
15. I'm Over You (Single Version) (3:01)
16. Only Your Love (3:17)
17. Try (Just A Little Bit Harder) [Single Version] (2:53)
18. I'm Gonna Cry Till My Tears Run Dry (3:26)
19. I Want To Be Loved (2:49)
20. The Hurt Came Back Again (2:42)
21. Stay With Me (3:32)
22. LYou Don't Know Nothing About Love (4:26)
23. You're Easy On My Mind (2:14)
24. No Matter How It All Turns Out (3:03)
25. A Good Love (2:37)
26. Heart Be Still (3:47)
 
Лог создания рипа
Exact Audio Copy V1.0 beta 3 from 29. August 2011
EAC extraction logfile from 21. March 2013, 8:55
Lorraine Ellison / Sister Love; The Warner Bros. Recordings
Used drive : TSSTcorpCDDVDW SH-S203B Adapter: 2 ID: 0
Read mode : Secure
Utilize accurate stream : Yes
Defeat audio cache : Yes
Make use of C2 pointers : No
Read offset correction : 6
Overread into Lead-In and Lead-Out : No
Fill up missing offset samples with silence : Yes
Delete leading and trailing silent blocks : No
Null samples used in CRC calculations : Yes
Used interface : Native Win32 interface for Win NT & 2000
Gap handling : Appended to previous track
Used output format : Internal WAV Routines
Sample format : 44.100 Hz; 16 Bit; Stereo
TOC of the extracted CD
Track | Start | Length | Start sector | End sector
---------------------------------------------------------
1 | 0:00.00 | 2:20.38 | 0 | 10537
2 | 2:20.38 | 3:33.61 | 10538 | 26573
3 | 5:54.24 | 3:05.21 | 26574 | 40469
4 | 8:59.45 | 2:32.25 | 40470 | 51894
5 | 11:31.70 | 2:47.50 | 51895 | 64469
6 | 14:19.45 | 3:03.19 | 64470 | 78213
7 | 17:22.64 | 3:33.16 | 78214 | 94204
8 | 20:56.05 | 2:17.50 | 94205 | 104529
9 | 23:13.55 | 3:10.43 | 104530 | 118822
10 | 26:24.23 | 3:03.72 | 118823 | 132619
11 | 29:28.20 | 3:02.41 | 132620 | 146310
12 | 32:30.61 | 2:36.43 | 146311 | 158053
13 | 35:07.29 | 3:22.48 | 158054 | 173251
14 | 38:30.02 | 2:56.44 | 173252 | 186495
15 | 41:26.46 | 3:01.53 | 186496 | 200123
16 | 44:28.24 | 3:18.46 | 200124 | 215019
17 | 47:46.70 | 2:54.52 | 215020 | 228121
18 | 50:41.47 | 3:27.63 | 228122 | 243709
19 | 54:09.35 | 2:48.70 | 243710 | 256379
20 | 56:58.30 | 2:43.55 | 256380 | 268659
21 | 59:42.10 | 3:33.44 | 268660 | 284678
22 | 63:15.54 | 4:29.13 | 284679 | 304866
23 | 67:44.67 | 2:15.56 | 304867 | 315047
24 | 70:00.48 | 3:05.38 | 315048 | 328960
25 | 73:06.11 | 2:38.25 | 328961 | 340835
26 | 75:44.36 | 3:46.71 | 340836 | 357856
Track 1
Filename F:\Bazar\EAC\Lorraine Ellison § 2006 § Sister Love; The Warner Bros. Recordings\01 § I Got My Baby Back.wav
Pre-gap length 0:00:02.00
Peak level 91.8 %
Extraction speed 3.4 X
Track quality 100.0 %
Test CRC A80E46C4
Copy CRC A80E46C4
Track not present in AccurateRip database
Copy OK
Track 2
Filename F:\Bazar\EAC\Lorraine Ellison § 2006 § Sister Love; The Warner Bros. Recordings\02 § Stay With Me (mono single version).wav
Pre-gap length 0:00:01.35
Peak level 92.4 %
Extraction speed 3.1 X
Track quality 99.9 %
Test CRC FE7DF4B3
Copy CRC FE7DF4B3
Track not present in AccurateRip database
Copy OK
Track 3
Filename F:\Bazar\EAC\Lorraine Ellison § 2006 § Sister Love; The Warner Bros. Recordings\03 § Heart and Soul.wav
Pre-gap length 0:00:02.35
Peak level 75.7 %
Extraction speed 3.2 X
Track quality 99.9 %
Test CRC D266F3AB
Copy CRC D266F3AB
Track not present in AccurateRip database
Copy OK
Track 4
Filename F:\Bazar\EAC\Lorraine Ellison § 2006 § Sister Love; The Warner Bros. Recordings\04 § Games That Lovers Play (Eine Ganze Nacht).wav
Peak level 78.3 %
Extraction speed 4.2 X
Track quality 100.0 %
Test CRC ABA6456A
Copy CRC ABA6456A
Track not present in AccurateRip database
Copy OK
Track 5
Filename F:\Bazar\EAC\Lorraine Ellison § 2006 § Sister Love; The Warner Bros. Recordings\05 § He's My Guy.wav
Pre-gap length 0:00:01.16
Peak level 77.7 %
Extraction speed 3.3 X
Track quality 99.9 %
Test CRC 1E921D39
Copy CRC 1E921D39
Track not present in AccurateRip database
Copy OK
Track 6
Filename F:\Bazar\EAC\Lorraine Ellison § 2006 § Sister Love; The Warner Bros. Recordings\06 § What A Difference a Day Makes.wav
Peak level 87.0 %
Extraction speed 3.6 X
Track quality 99.9 %
Test CRC 11D034A7
Copy CRC 11D034A7
Track not present in AccurateRip database
Copy OK
Track 7
Filename F:\Bazar\EAC\Lorraine Ellison § 2006 § Sister Love; The Warner Bros. Recordings\07 § A Change Is Gonna Come.wav
Peak level 84.8 %
Extraction speed 5.1 X
Track quality 100.0 %
Test CRC FDFF86D1
Copy CRC FDFF86D1
Track not present in AccurateRip database
Copy OK
Track 8
Filename F:\Bazar\EAC\Lorraine Ellison § 2006 § Sister Love; The Warner Bros. Recordings\08 § If I Had a Hammer (The Hammer Song).wav
Pre-gap length 0:00:01.13
Peak level 86.8 %
Extraction speed 4.9 X
Track quality 100.0 %
Test CRC 54A278EC
Copy CRC 54A278EC
Track not present in AccurateRip database
Copy OK
Track 9
Filename F:\Bazar\EAC\Lorraine Ellison § 2006 § Sister Love; The Warner Bros. Recordings\09 § When Love Flies Away.wav
Peak level 84.2 %
Extraction speed 4.1 X
Track quality 99.9 %
Test CRC FBDDDC6D
Copy CRC FBDDDC6D
Track not present in AccurateRip database
Copy OK
Track 10
Filename F:\Bazar\EAC\Lorraine Ellison § 2006 § Sister Love; The Warner Bros. Recordings\10 § Cry Me a River.wav
Peak level 84.9 %
Extraction speed 5.4 X
Track quality 100.0 %
Test CRC BF371424
Copy CRC BF371424
Track not present in AccurateRip database
Copy OK
Track 11
Filename F:\Bazar\EAC\Lorraine Ellison § 2006 § Sister Love; The Warner Bros. Recordings\11 § What Is a Woman.wav
Pre-gap length 0:00:01.40
Peak level 88.4 %
Extraction speed 5.7 X
Track quality 100.0 %
Test CRC 5AC6BFE5
Copy CRC 5AC6BFE5
Track not present in AccurateRip database
Copy OK
Track 12
Filename F:\Bazar\EAC\Lorraine Ellison § 2006 § Sister Love; The Warner Bros. Recordings\12 § That's For Me.wav
Pre-gap length 0:00:01.37
Peak level 90.4 %
Extraction speed 5.6 X
Track quality 100.0 %
Test CRC 7AA67A6E
Copy CRC 7AA67A6E
Track not present in AccurateRip database
Copy OK
Track 13
Filename F:\Bazar\EAC\Lorraine Ellison § 2006 § Sister Love; The Warner Bros. Recordings\13 § My Man's Gone Now.wav
Pre-gap length 0:00:01.69
Peak level 99.8 %
Extraction speed 6.0 X
Track quality 100.0 %
Test CRC BDB534B4
Copy CRC BDB534B4
Track not present in AccurateRip database
Copy OK
Track 14
Filename F:\Bazar\EAC\Lorraine Ellison § 2006 § Sister Love; The Warner Bros. Recordings\14 § Ain't That Peculiar.wav
Pre-gap length 0:00:01.32
Peak level 95.0 %
Extraction speed 4.5 X
Track quality 99.9 %
Test CRC A32C2E06
Copy CRC A32C2E06
Track not present in AccurateRip database
Copy OK
Track 15
Filename F:\Bazar\EAC\Lorraine Ellison § 2006 § Sister Love; The Warner Bros. Recordings\15 § I'm Over You.wav
Pre-gap length 0:00:02.44
Peak level 92.6 %
Extraction speed 6.2 X
Track quality 100.0 %
Test CRC 1B2C3774
Copy CRC 1B2C3774
Track not present in AccurateRip database
Copy OK
Track 16
Filename F:\Bazar\EAC\Lorraine Ellison § 2006 § Sister Love; The Warner Bros. Recordings\16 § Only Your Love.wav
Pre-gap length 0:00:01.09
Peak level 98.6 %
Extraction speed 6.5 X
Track quality 100.0 %
Test CRC DC0CE3A2
Copy CRC DC0CE3A2
Track not present in AccurateRip database
Copy OK
Track 17
Filename F:\Bazar\EAC\Lorraine Ellison § 2006 § Sister Love; The Warner Bros. Recordings\17 § Try (Just a Little Bit Harder).wav
Pre-gap length 0:00:01.64
Peak level 99.8 %
Extraction speed 6.5 X
Track quality 100.0 %
Test CRC 1D4AEA08
Copy CRC 1D4AEA08
Track not present in AccurateRip database
Copy OK
Track 18
Filename F:\Bazar\EAC\Lorraine Ellison § 2006 § Sister Love; The Warner Bros. Recordings\18 § I'm Gonna Cry Till My Tears Run Dry.wav
Pre-gap length 0:00:02.04
Peak level 99.6 %
Extraction speed 5.3 X
Track quality 99.9 %
Test CRC 5EF4B865
Copy CRC 5EF4B865
Track not present in AccurateRip database
Copy OK
Track 19
Filename F:\Bazar\EAC\Lorraine Ellison § 2006 § Sister Love; The Warner Bros. Recordings\19 § I Want to Be Loved.wav
Pre-gap length 0:00:01.63
Peak level 90.7 %
Extraction speed 6.7 X
Track quality 100.0 %
Test CRC 43482A4F
Copy CRC 43482A4F
Track not present in AccurateRip database
Copy OK
Track 20
Filename F:\Bazar\EAC\Lorraine Ellison § 2006 § Sister Love; The Warner Bros. Recordings\20 § The Hurt Came Back Again.wav
Peak level 99.8 %
Extraction speed 6.8 X
Track quality 100.0 %
Test CRC 21CDAA05
Copy CRC 21CDAA05
Track not present in AccurateRip database
Copy OK
Track 21
Filename F:\Bazar\EAC\Lorraine Ellison § 2006 § Sister Love; The Warner Bros. Recordings\21 § Stay With Me (LP version).wav
Pre-gap length 0:00:01.51
Peak level 85.1 %
Extraction speed 7.2 X
Track quality 100.0 %
Test CRC CF7C3FCD
Copy CRC CF7C3FCD
Track not present in AccurateRip database
Copy OK
Track 22
Filename F:\Bazar\EAC\Lorraine Ellison § 2006 § Sister Love; The Warner Bros. Recordings\22 § You Don't Know Nothing About Love.wav
Pre-gap length 0:00:01.08
Peak level 99.8 %
Extraction speed 7.7 X
Track quality 100.0 %
Test CRC 38CE7813
Copy CRC 38CE7813
Track not present in AccurateRip database
Copy OK
Track 23
Filename F:\Bazar\EAC\Lorraine Ellison § 2006 § Sister Love; The Warner Bros. Recordings\23 § You're Easy on My Mind.wav
Pre-gap length 0:00:03.37
Peak level 99.8 %
Extraction speed 4.8 X
Track quality 99.9 %
Test CRC A68CC2F7
Copy CRC A68CC2F7
Track not present in AccurateRip database
Copy OK
Track 24
Filename F:\Bazar\EAC\Lorraine Ellison § 2006 § Sister Love; The Warner Bros. Recordings\24 § No Matter How It All Turns Out.wav
Pre-gap length 0:00:01.22
Peak level 99.8 %
Extraction speed 7.5 X
Track quality 100.0 %
Test CRC 3757DED5
Copy CRC 3757DED5
Track not present in AccurateRip database
Copy OK
Track 25
Filename F:\Bazar\EAC\Lorraine Ellison § 2006 § Sister Love; The Warner Bros. Recordings\25 § A Good Love.wav
Pre-gap length 0:00:02.04
Peak level 99.8 %
Extraction speed 5.3 X
Track quality 99.9 %
Test CRC 9F830F75
Copy CRC 9F830F75
Track not present in AccurateRip database
Copy OK
Track 26
Filename F:\Bazar\EAC\Lorraine Ellison § 2006 § Sister Love; The Warner Bros. Recordings\26 § Heart Be Still.wav
Pre-gap length 0:00:01.25
Peak level 99.5 %
Extraction speed 0.4 X
Track quality 99.4 %
Test CRC A0CEA0BA
Copy CRC A0CEA0BA
Cannot be verified as accurate (confidence 1) [5E9252E0], AccurateRip returned [05F00405] (AR v2)
Copy OK
1 track(s) could not be verified as accurate
25 track(s) not present in the AccurateRip database
No tracks could be verified as accurate
You may have a different pressing from the one(s) in the database
No errors occurred
End of status report
---- CUETools DB Plugin V2.1.3
[CTDB TOCID: Iylb9DF6tyIPBRgBXrk63uczsUI-] disk not present in database, Submit result: Iylb9DF6tyIPBRgBXrk63uczsUI- has been uploaded
==== Log checksum 6C7DDF0DADE9203A68D3568BA0F4DFBAF078F23FC1A2C9AAB2301552A1046A23 ====
 
Содержание индексной карты (.CUE)
REM GENRE Soul
REM DATE 2006
REM DISCID 8112A31A
REM COMMENT "ExactAudioCopy v1.0b3"
PERFORMER "Lorraine Ellison"
TITLE "Sister Love; The Warner Bros. Recordings"
FILE "01 § I Got My Baby Back.wav" WAVE
TRACK 01 AUDIO
TITLE "I Got My Baby Back"
PERFORMER "Lorraine Ellison"
INDEX 01 00:00:00
TRACK 02 AUDIO
TITLE "Stay With Me (mono single version)"
PERFORMER "Lorraine Ellison"
INDEX 00 02:19:03
FILE "02 § Stay With Me (mono single version).wav" WAVE
INDEX 01 00:00:00
TRACK 03 AUDIO
TITLE "Heart and Soul"
PERFORMER "Lorraine Ellison"
INDEX 00 03:31:26
FILE "03 § Heart and Soul.wav" WAVE
INDEX 01 00:00:00
FILE "04 § Games That Lovers Play (Eine Ganze Nacht).wav" WAVE
TRACK 04 AUDIO
TITLE "Games That Lovers Play (Eine Ganze Nacht)"
PERFORMER "Lorraine Ellison"
INDEX 01 00:00:00
TRACK 05 AUDIO
TITLE "He's My Guy"
PERFORMER "Lorraine Ellison"
INDEX 00 02:31:09
FILE "05 § He's My Guy.wav" WAVE
INDEX 01 00:00:00
FILE "06 § What A Difference a Day Makes.wav" WAVE
TRACK 06 AUDIO
TITLE "What A Difference a Day Makes"
PERFORMER "Lorraine Ellison"
INDEX 01 00:00:00
FILE "07 § A Change Is Gonna Come.wav" WAVE
TRACK 07 AUDIO
TITLE "A Change Is Gonna Come"
PERFORMER "Lorraine Ellison"
INDEX 01 00:00:00
TRACK 08 AUDIO
TITLE "If I Had a Hammer (The Hammer Song)"
PERFORMER "Lorraine Ellison"
INDEX 00 03:32:03
FILE "08 § If I Had a Hammer (The Hammer Song).wav" WAVE
INDEX 01 00:00:00
FILE "09 § When Love Flies Away.wav" WAVE
TRACK 09 AUDIO
TITLE "When Love Flies Away"
PERFORMER "Lorraine Ellison"
INDEX 01 00:00:00
FILE "10 § Cry Me a River.wav" WAVE
TRACK 10 AUDIO
TITLE "Cry Me a River"
PERFORMER "Lorraine Ellison"
INDEX 01 00:00:00
TRACK 11 AUDIO
TITLE "What Is a Woman"
PERFORMER "Lorraine Ellison"
INDEX 00 03:02:32
FILE "11 § What Is a Woman.wav" WAVE
INDEX 01 00:00:00
TRACK 12 AUDIO
TITLE "That's For Me"
PERFORMER "Lorraine Ellison"
INDEX 00 03:01:04
FILE "12 § That's For Me.wav" WAVE
INDEX 01 00:00:00
TRACK 13 AUDIO
TITLE "My Man's Gone Now"
PERFORMER "Lorraine Ellison"
INDEX 00 02:34:49
FILE "13 § My Man's Gone Now.wav" WAVE
INDEX 01 00:00:00
TRACK 14 AUDIO
TITLE "Ain't That Peculiar"
PERFORMER "Lorraine Ellison"
INDEX 00 03:21:16
FILE "14 § Ain't That Peculiar.wav" WAVE
INDEX 01 00:00:00
TRACK 15 AUDIO
TITLE "I'm Over You"
PERFORMER "Lorraine Ellison"
INDEX 00 02:54:00
FILE "15 § I'm Over You.wav" WAVE
INDEX 01 00:00:00
TRACK 16 AUDIO
TITLE "Only Your Love"
PERFORMER "Lorraine Ellison"
INDEX 00 03:00:44
FILE "16 § Only Your Love.wav" WAVE
INDEX 01 00:00:00
TRACK 17 AUDIO
TITLE "Try (Just a Little Bit Harder)"
PERFORMER "Lorraine Ellison"
INDEX 00 03:16:57
FILE "17 § Try (Just a Little Bit Harder).wav" WAVE
INDEX 01 00:00:00
TRACK 18 AUDIO
TITLE "I'm Gonna Cry Till My Tears Run Dry"
PERFORMER "Lorraine Ellison"
INDEX 00 02:52:48
FILE "18 § I'm Gonna Cry Till My Tears Run Dry.wav" WAVE
INDEX 01 00:00:00
TRACK 19 AUDIO
TITLE "I Want to Be Loved"
PERFORMER "Lorraine Ellison"
INDEX 00 03:26:00
FILE "19 § I Want to Be Loved.wav" WAVE
INDEX 01 00:00:00
FILE "20 § The Hurt Came Back Again.wav" WAVE
TRACK 20 AUDIO
TITLE "The Hurt Came Back Again"
PERFORMER "Lorraine Ellison"
INDEX 01 00:00:00
TRACK 21 AUDIO
TITLE "Stay With Me (LP version)"
PERFORMER "Lorraine Ellison"
INDEX 00 02:42:04
FILE "21 § Stay With Me (LP version).wav" WAVE
INDEX 01 00:00:00
TRACK 22 AUDIO
TITLE "You Don't Know Nothing About Love"
PERFORMER "Lorraine Ellison"
INDEX 00 03:32:36
FILE "22 § You Don't Know Nothing About Love.wav" WAVE
INDEX 01 00:00:00
TRACK 23 AUDIO
TITLE "You're Easy on My Mind"
PERFORMER "Lorraine Ellison"
INDEX 00 04:25:51
FILE "23 § You're Easy on My Mind.wav" WAVE
INDEX 01 00:00:00
TRACK 24 AUDIO
TITLE "No Matter How It All Turns Out"
PERFORMER "Lorraine Ellison"
INDEX 00 02:14:34
FILE "24 § No Matter How It All Turns Out.wav" WAVE
INDEX 01 00:00:00
TRACK 25 AUDIO
TITLE "A Good Love"
PERFORMER "Lorraine Ellison"
INDEX 00 03:03:34
FILE "25 § A Good Love.wav" WAVE
INDEX 01 00:00:00
TRACK 26 AUDIO
TITLE "Heart Be Still"
PERFORMER "Lorraine Ellison"
INDEX 00 02:37:00
FILE "26 § Heart Be Still.wav" WAVE
INDEX 01 00:00:00
 
DR Log
foobar2000 1.1.10 / Dynamic Range Meter 1.1.1
log date: 2016-12-24 17:50:55
--------------------------------------------------------------------------------
Analyzed: Lorraine Ellison / Sister Love: The Warner Bros. Recordings
--------------------------------------------------------------------------------
DR Peak RMS Duration Track
--------------------------------------------------------------------------------
DR9 -0.74 dB -12.32 dB 2:21 ?-I Got My Baby Back
DR9 -0.68 dB -13.48 dB 3:34 ?-Stay With Me (mono single version)
DR9 -2.41 dB -14.02 dB 3:05 ?-Heart and Soul
DR9 -2.12 dB -13.35 dB 2:32 ?-Games That Lovers Play (Eine Ganze Nacht)
DR10 -2.19 dB -15.75 dB 2:48 ?-He's My Guy
DR11 -1.21 dB -14.41 dB 3:03 ?-What a Difference a Day Makes
DR9 -1.42 dB -14.13 dB 3:33 ?-A Change Is Gonna Come
DR9 -1.22 dB -12.08 dB 2:18 ?-If I Had a Hammer (The Hammer Song)
DR9 -1.49 dB -13.75 dB 3:11 ?-When Love Flies Away
DR9 -1.42 dB -13.43 dB 3:04 ?-Cry Me a River
DR9 -1.07 dB -13.03 dB 3:03 ?-What Is a Woman
DR10 -0.87 dB -13.16 dB 2:37 ?-That's For Me
DR9 -0.01 dB -12.03 dB 3:23 ?-My Man's Gone Now
DR9 -0.44 dB -11.76 dB 2:57 ?-Ain't That Peculiar
DR9 -0.66 dB -12.68 dB 3:02 ?-I'm Over You
DR9 -0.12 dB -13.56 dB 3:19 ?-Only Your Love
DR9 -0.01 dB -11.84 dB 2:55 ?-Try (Just a Little Bit Harder)
DR8 -0.03 dB -12.30 dB 3:28 ?-I'm Gonna Cry Till My Tears Run Dry
DR10 -0.84 dB -15.22 dB 2:49 ?-I Want to Be Loved
DR9 -0.01 dB -11.21 dB 2:44 ?-The Hurt Came Back Again
DR9 -1.40 dB -13.33 dB 3:34 ?-Stay With Me (LP version)
DR9 -0.01 dB -12.60 dB 4:29 ?-You Don't Know Nothing About Love
DR8 -0.01 dB -10.04 dB 2:16 ?-You're Easy on My Mind
DR9 -0.01 dB -12.00 dB 3:06 ?-No Matter How It All Turns Out
DR9 -0.01 dB -12.02 dB 2:38 ?-A Good Love
DR10 -0.04 dB -14.12 dB 3:47 ?-Heart Be Still
--------------------------------------------------------------------------------
Number of tracks: 26
Official DR value: DR9
Samplerate: 44100 Hz
Channels: 2
Bits per sample: 16
Bitrate: 889 kbps
Codec: FLAC
================================================================================
 
CD 2
01. Haven't I Been Good To You (2:54)
02. In My Tomorrow (Single Version) (2:54)
03. You've Really Got A Hold On Me (Single Version) (3:00)
04. Time Is On My Side (3:28)
05. Woman, Loose My Man (2:14)
06. Let Me Love You (2:29)
07. Doin' Me Dirty (2:08)
08. He Ain't Heavy, He's My Brother (5:19)
09. Caravan (4:23)
10. I'll Be Home (3:01)
11. Dear John (2:59)
12. You've Got A Friend (4:10)
13. Walk Around Heaven (3:55)
14. Country Woman's Prayer (3:58)
15. Do Better Than You're Doin' (3:27)
16. If Only I Could See Him (4:21)
17. No Relief (3:12)
18. I'll Fly Away (2:29)
19. The Road I Took To You (3:54)
20. Stormy Weather (Single Version) (3:44)
21. Many Rivers To Cross (Single Version) (3:09)
22. When You Count The Ones You Love (2:45)
23. Sister Love (Outtake) (2:39)
24. Sweet Years (Outtake) (2:55)
 
Лог создания рипа
Exact Audio Copy V1.0 beta 3 from 29. August 2011
EAC extraction logfile from 20. March 2013, 11:20
Lorraine Ellison / Sister Love; The Warner Bros. Recordings
Used drive : TSSTcorpCDDVDW SH-S203B Adapter: 2 ID: 0
Read mode : Secure
Utilize accurate stream : Yes
Defeat audio cache : Yes
Make use of C2 pointers : No
Read offset correction : 6
Overread into Lead-In and Lead-Out : No
Fill up missing offset samples with silence : Yes
Delete leading and trailing silent blocks : No
Null samples used in CRC calculations : Yes
Used interface : Native Win32 interface for Win NT & 2000
Gap handling : Appended to previous track
Used output format : Internal WAV Routines
Sample format : 44.100 Hz; 16 Bit; Stereo
TOC of the extracted CD
Track | Start | Length | Start sector | End sector
---------------------------------------------------------
1 | 0:00.00 | 2:54.00 | 0 | 13049
2 | 2:54.00 | 2:54.09 | 13050 | 26108
3 | 5:48.09 | 3:00.26 | 26109 | 39634
4 | 8:48.35 | 3:27.71 | 39635 | 55230
5 | 12:16.31 | 2:13.55 | 55231 | 65260
6 | 14:30.11 | 2:28.70 | 65261 | 76430
7 | 16:59.06 | 2:08.21 | 76431 | 86051
8 | 19:07.27 | 5:19.17 | 86052 | 109993
9 | 24:26.44 | 4:22.44 | 109994 | 129687
10 | 28:49.13 | 3:00.74 | 129688 | 143261
11 | 31:50.12 | 2:58.43 | 143262 | 156654
12 | 34:48.55 | 4:10.28 | 156655 | 175432
13 | 38:59.08 | 3:54.69 | 175433 | 193051
14 | 42:54.02 | 3:59.36 | 193052 | 211012
15 | 46:53.38 | 3:27.34 | 211013 | 226571
16 | 50:20.72 | 4:21.05 | 226572 | 246151
17 | 54:42.02 | 3:11.47 | 246152 | 260523
18 | 57:53.49 | 2:28.53 | 260524 | 271676
19 | 60:22.27 | 3:53.61 | 271677 | 289212
20 | 64:16.13 | 3:43.42 | 289213 | 305979
21 | 67:59.55 | 3:08.68 | 305980 | 320147
22 | 71:08.48 | 2:45.66 | 320148 | 332588
23 | 73:54.39 | 2:39.24 | 332589 | 344537
24 | 76:33.63 | 2:55.36 | 344538 | 357698
Track 1
Filename F:\Bazar\EAC\Lorraine Ellison § 2006 § Sister Love; The Warner Bros. Recordings\01 § Haven't I Been Good to You.wav
Pre-gap length 0:00:02.00
Peak level 72.8 %
Extraction speed 4.6 X
Track quality 100.0 %
Test CRC B55A9D82
Copy CRC B55A9D82
Track not present in AccurateRip database
Copy OK
Track 2
Filename F:\Bazar\EAC\Lorraine Ellison § 2006 § Sister Love; The Warner Bros. Recordings\02 § In My Tomorrow.wav
Peak level 88.9 %
Extraction speed 4.9 X
Track quality 100.0 %
Test CRC EDA67185
Copy CRC EDA67185
Track not present in AccurateRip database
Copy OK
Track 3
Filename F:\Bazar\EAC\Lorraine Ellison § 2006 § Sister Love; The Warner Bros. Recordings\03 § You've Really Got a Hold on Me.wav
Peak level 94.1 %
Extraction speed 5.2 X
Track quality 100.0 %
Test CRC E29E5281
Copy CRC E29E5281
Track not present in AccurateRip database
Copy OK
Track 4
Filename F:\Bazar\EAC\Lorraine Ellison § 2006 § Sister Love; The Warner Bros. Recordings\04 § Time Is on My Side.wav
Peak level 99.8 %
Extraction speed 5.6 X
Track quality 100.0 %
Test CRC 3F07D44F
Copy CRC 3F07D44F
Track not present in AccurateRip database
Copy OK
Track 5
Filename F:\Bazar\EAC\Lorraine Ellison § 2006 § Sister Love; The Warner Bros. Recordings\05 § Woman, Loose My Man.wav
Peak level 96.9 %
Extraction speed 5.4 X
Track quality 100.0 %
Test CRC 9C1B6238
Copy CRC 9C1B6238
Track not present in AccurateRip database
Copy OK
Track 6
Filename F:\Bazar\EAC\Lorraine Ellison § 2006 § Sister Love; The Warner Bros. Recordings\06 § Let Me Love You.wav
Peak level 99.8 %
Extraction speed 5.7 X
Track quality 100.0 %
Test CRC 46EB0FFC
Copy CRC 46EB0FFC
Track not present in AccurateRip database
Copy OK
Track 7
Filename F:\Bazar\EAC\Lorraine Ellison § 2006 § Sister Love; The Warner Bros. Recordings\07 § Doin' Me Dirty.wav
Peak level 95.0 %
Extraction speed 5.6 X
Track quality 100.0 %
Test CRC 499D3F5F
Copy CRC 499D3F5F
Track not present in AccurateRip database
Copy OK
Track 8
Filename F:\Bazar\EAC\Lorraine Ellison § 2006 § Sister Love; The Warner Bros. Recordings\08 § He Ain't Heavy, He's My Brother.wav
Peak level 99.8 %
Extraction speed 6.9 X
Track quality 100.0 %
Test CRC 4B0D207F
Copy CRC 4B0D207F
Track not present in AccurateRip database
Copy OK
Track 9
Filename F:\Bazar\EAC\Lorraine Ellison § 2006 § Sister Love; The Warner Bros. Recordings\09 § Caravan.wav
Peak level 95.6 %
Extraction speed 5.8 X
Track quality 99.9 %
Test CRC A1A6D1B2
Copy CRC A1A6D1B2
Track not present in AccurateRip database
Copy OK
Track 10
Filename F:\Bazar\EAC\Lorraine Ellison § 2006 § Sister Love; The Warner Bros. Recordings\10 § I'll Be Home.wav
Peak level 81.8 %
Extraction speed 7.0 X
Track quality 100.0 %
Test CRC 7811D34D
Copy CRC 7811D34D
Track not present in AccurateRip database
Copy OK
Track 11
Filename F:\Bazar\EAC\Lorraine Ellison § 2006 § Sister Love; The Warner Bros. Recordings\11 § Dear John.wav
Peak level 97.4 %
Extraction speed 7.2 X
Track quality 100.0 %
Test CRC B0FABB96
Copy CRC B0FABB96
Track not present in AccurateRip database
Copy OK
Track 12
Filename F:\Bazar\EAC\Lorraine Ellison § 2006 § Sister Love; The Warner Bros. Recordings\12 § You've Got a Friend.wav
Peak level 89.9 %
Extraction speed 7.8 X
Track quality 100.0 %
Test CRC 2C9C0C85
Copy CRC 2C9C0C85
Track not present in AccurateRip database
Copy OK
Track 13
Filename F:\Bazar\EAC\Lorraine Ellison § 2006 § Sister Love; The Warner Bros. Recordings\13 § Walk Around Heaven.wav
Peak level 99.8 %
Extraction speed 8.0 X
Track quality 100.0 %
Test CRC 9B084978
Copy CRC 9B084978
Track not present in AccurateRip database
Copy OK
Track 14
Filename F:\Bazar\EAC\Lorraine Ellison § 2006 § Sister Love; The Warner Bros. Recordings\14 § Country Woman's Prayer.wav
Peak level 99.8 %
Extraction speed 8.2 X
Track quality 100.0 %
Test CRC 4608953A
Copy CRC 4608953A
Track not present in AccurateRip database
Copy OK
Track 15
Filename F:\Bazar\EAC\Lorraine Ellison § 2006 § Sister Love; The Warner Bros. Recordings\15 § Do Better Than You're Doin'.wav
Pre-gap length 0:00:01.22
Peak level 99.8 %
Extraction speed 6.4 X
Track quality 99.9 %
Test CRC 2DF267AE
Copy CRC 2DF267AE
Track not present in AccurateRip database
Copy OK
Track 16
Filename F:\Bazar\EAC\Lorraine Ellison § 2006 § Sister Love; The Warner Bros. Recordings\16 § If Only I Could See Him.wav
Peak level 99.8 %
Extraction speed 8.6 X
Track quality 100.0 %
Test CRC 026A2E78
Copy CRC 026A2E78
Track not present in AccurateRip database
Copy OK
Track 17
Filename F:\Bazar\EAC\Lorraine Ellison § 2006 § Sister Love; The Warner Bros. Recordings\17 § No Relief.wav
Peak level 99.8 %
Extraction speed 8.6 X
Track quality 100.0 %
Test CRC EAC4AF2E
Copy CRC EAC4AF2E
Track not present in AccurateRip database
Copy OK
Track 18
Filename F:\Bazar\EAC\Lorraine Ellison § 2006 § Sister Love; The Warner Bros. Recordings\18 § I'll Fly Away.wav
Peak level 99.8 %
Extraction speed 6.0 X
Track quality 99.9 %
Test CRC 98CA135D
Copy CRC 98CA135D
Track not present in AccurateRip database
Copy OK
Track 19
Filename F:\Bazar\EAC\Lorraine Ellison § 2006 § Sister Love; The Warner Bros. Recordings\19 § The Road I Took to You.wav
Peak level 99.8 %
Extraction speed 9.2 X
Track quality 100.0 %
Test CRC BFD9BF1F
Copy CRC BFD9BF1F
Track not present in AccurateRip database
Copy OK
Track 20
Filename F:\Bazar\EAC\Lorraine Ellison § 2006 § Sister Love; The Warner Bros. Recordings\20 § Stormy Weather.wav
Peak level 91.4 %
Extraction speed 9.4 X
Track quality 100.0 %
Test CRC 87D9172D
Copy CRC 87D9172D
Track not present in AccurateRip database
Copy OK
Track 21
Filename F:\Bazar\EAC\Lorraine Ellison § 2006 § Sister Love; The Warner Bros. Recordings\21 § Many Rivers to Cross.wav
Peak level 97.4 %
Extraction speed 7.0 X
Track quality 99.9 %
Test CRC 49D6F4F4
Copy CRC 49D6F4F4
Track not present in AccurateRip database
Copy OK
Track 22
Filename F:\Bazar\EAC\Lorraine Ellison § 2006 § Sister Love; The Warner Bros. Recordings\22 § When You Count the Ones You Love.wav
Peak level 99.8 %
Extraction speed 9.2 X
Track quality 100.0 %
Test CRC 77E716A8
Copy CRC 77E716A8
Track not present in AccurateRip database
Copy OK
Track 23
Filename F:\Bazar\EAC\Lorraine Ellison § 2006 § Sister Love; The Warner Bros. Recordings\23 § Sister Love.wav
Pre-gap length 0:00:01.03
Peak level 99.8 %
Extraction speed 9.3 X
Track quality 100.0 %
Test CRC 5D14492E
Copy CRC 5D14492E
Track not present in AccurateRip database
Copy OK
Track 24
Filename F:\Bazar\EAC\Lorraine Ellison § 2006 § Sister Love; The Warner Bros. Recordings\24 § Sweet Years.wav
Peak level 93.8 %
Extraction speed 9.4 X
Track quality 100.0 %
Test CRC 55A0CCE7
Copy CRC 55A0CCE7
Track not present in AccurateRip database
Copy OK
None of the tracks are present in the AccurateRip database
No errors occurred
End of status report
---- CUETools DB Plugin V2.1.3
[CTDB TOCID: k38ZQsuiPp_bb7kUI9MKwLoJY7I-] disk not present in database, Submit result: k38ZQsuiPp_bb7kUI9MKwLoJY7I- has been uploaded
==== Log checksum 0C07BB537292F94279F4B975D5B0B4F62AD608B1DAEBA2AD7A60F9E2982B23EB ====
 
Содержание индексной карты (.CUE)
REM GENRE Soul
REM DATE 2006
REM DISCID 5012A118
REM COMMENT "ExactAudioCopy v1.0b3"
PERFORMER "Lorraine Ellison"
TITLE "Sister Love; The Warner Bros. Recordings"
FILE "01 § Haven't I Been Good to You.wav" WAVE
TRACK 01 AUDIO
TITLE "Haven't I Been Good to You"
PERFORMER "Lorraine Ellison"
INDEX 01 00:00:00
FILE "02 § In My Tomorrow.wav" WAVE
TRACK 02 AUDIO
TITLE "In My Tomorrow"
PERFORMER "Lorraine Ellison"
INDEX 01 00:00:00
FILE "03 § You've Really Got a Hold on Me.wav" WAVE
TRACK 03 AUDIO
TITLE "You've Really Got a Hold on Me"
PERFORMER "Lorraine Ellison"
INDEX 01 00:00:00
FILE "04 § Time Is on My Side.wav" WAVE
TRACK 04 AUDIO
TITLE "Time Is on My Side"
PERFORMER "Lorraine Ellison"
INDEX 01 00:00:00
FILE "05 § Woman, Loose My Man.wav" WAVE
TRACK 05 AUDIO
TITLE "Woman, Loose My Man"
PERFORMER "Lorraine Ellison"
INDEX 01 00:00:00
FILE "06 § Let Me Love You.wav" WAVE
TRACK 06 AUDIO
TITLE "Let Me Love You"
PERFORMER "Lorraine Ellison"
INDEX 01 00:00:00
FILE "07 § Doin' Me Dirty.wav" WAVE
TRACK 07 AUDIO
TITLE "Doin' Me Dirty"
PERFORMER "Lorraine Ellison"
INDEX 01 00:00:00
FILE "08 § He Ain't Heavy, He's My Brother.wav" WAVE
TRACK 08 AUDIO
TITLE "He Ain't Heavy, He's My Brother"
PERFORMER "Lorraine Ellison"
INDEX 01 00:00:00
FILE "09 § Caravan.wav" WAVE
TRACK 09 AUDIO
TITLE "Caravan"
PERFORMER "Lorraine Ellison"
INDEX 01 00:00:00
FILE "10 § I'll Be Home.wav" WAVE
TRACK 10 AUDIO
TITLE "I'll Be Home"
PERFORMER "Lorraine Ellison"
INDEX 01 00:00:00
FILE "11 § Dear John.wav" WAVE
TRACK 11 AUDIO
TITLE "Dear John"
PERFORMER "Lorraine Ellison"
INDEX 01 00:00:00
FILE "12 § You've Got a Friend.wav" WAVE
TRACK 12 AUDIO
TITLE "You've Got a Friend"
PERFORMER "Lorraine Ellison"
INDEX 01 00:00:00
FILE "13 § Walk Around Heaven.wav" WAVE
TRACK 13 AUDIO
TITLE "Walk Around Heaven"
PERFORMER "Lorraine Ellison"
INDEX 01 00:00:00
FILE "14 § Country Woman's Prayer.wav" WAVE
TRACK 14 AUDIO
TITLE "Country Woman's Prayer"
PERFORMER "Lorraine Ellison"
INDEX 01 00:00:00
TRACK 15 AUDIO
TITLE "Do Better Than You're Doin'"
PERFORMER "Lorraine Ellison"
INDEX 00 03:58:14
FILE "15 § Do Better Than You're Doin'.wav" WAVE
INDEX 01 00:00:00
FILE "16 § If Only I Could See Him.wav" WAVE
TRACK 16 AUDIO
TITLE "If Only I Could See Him"
PERFORMER "Lorraine Ellison"
INDEX 01 00:00:00
FILE "17 § No Relief.wav" WAVE
TRACK 17 AUDIO
TITLE "No Relief"
PERFORMER "Lorraine Ellison"
INDEX 01 00:00:00
FILE "18 § I'll Fly Away.wav" WAVE
TRACK 18 AUDIO
TITLE "I'll Fly Away"
PERFORMER "Lorraine Ellison"
INDEX 01 00:00:00
FILE "19 § The Road I Took to You.wav" WAVE
TRACK 19 AUDIO
TITLE "The Road I Took to You"
PERFORMER "Lorraine Ellison"
INDEX 01 00:00:00
FILE "20 § Stormy Weather.wav" WAVE
TRACK 20 AUDIO
TITLE "Stormy Weather"
PERFORMER "Lorraine Ellison"
INDEX 01 00:00:00
FILE "21 § Many Rivers to Cross.wav" WAVE
TRACK 21 AUDIO
TITLE "Many Rivers to Cross"
PERFORMER "Lorraine Ellison"
INDEX 01 00:00:00
FILE "22 § When You Count the Ones You Love.wav" WAVE
TRACK 22 AUDIO
TITLE "When You Count the Ones You Love"
PERFORMER "Lorraine Ellison"
INDEX 01 00:00:00
TRACK 23 AUDIO
TITLE "Sister Love"
PERFORMER "Lorraine Ellison"
INDEX 00 02:44:63
FILE "23 § Sister Love.wav" WAVE
INDEX 01 00:00:00
FILE "24 § Sweet Years.wav" WAVE
TRACK 24 AUDIO
TITLE "Sweet Years"
PERFORMER "Lorraine Ellison"
INDEX 01 00:00:00
 
DR Log
foobar2000 1.1.10 / Dynamic Range Meter 1.1.1
log date: 2016-12-24 17:53:59
--------------------------------------------------------------------------------
Analyzed: Lorraine Ellison / Sister Love: The Warner Bros. Recordings
--------------------------------------------------------------------------------
DR Peak RMS Duration Track
--------------------------------------------------------------------------------
DR9 -2.75 dB -13.95 dB 2:54 ?-Haven't I Been Good to You
DR10 -1.02 dB -13.78 dB 2:54 ?-In My Tomorrow
DR8 -0.53 dB -11.22 dB 3:00 ?-You've Really Got a Hold on Me
DR8 -0.01 dB -10.37 dB 3:28 ?-Time Is on My Side
DR9 -0.27 dB -11.62 dB 2:14 ?-Woman, Loose My Man
DR9 -0.01 dB -11.47 dB 2:29 ?-Let Me Love You
DR11 -0.44 dB -13.61 dB 2:08 ?-Doin' Me Dirty
DR10 -0.01 dB -14.35 dB 5:19 ?-He Ain't Heavy, He's My Brother
DR11 -0.39 dB -15.18 dB 4:23 ?-Caravan
DR11 -1.74 dB -16.02 dB 3:01 ?-I'll Be Home
DR10 -0.22 dB -13.27 dB 2:59 ?-Dear John
DR12 -0.92 dB -14.60 dB 4:10 ?-You've Got a Friend
DR9 -0.01 dB -13.39 dB 3:55 ?-Walk Around Heaven
DR11 -0.01 dB -12.97 dB 3:59 ?-Country Woman's Prayer
DR11 -0.01 dB -13.29 dB 3:27 ?-Do Better Than You're Doin'
DR9 -0.01 dB -11.81 dB 4:21 ?-If Only I Could See Him
DR10 -0.01 dB -12.31 dB 3:12 ?-No Relief
DR8 -0.01 dB -9.99 dB 2:29 ?-I'll Fly Away
DR8 -0.01 dB -10.38 dB 3:54 ?-The Road I Took to You
DR10 -0.78 dB -14.45 dB 3:44 ?-Stormy Weather
DR8 -0.23 dB -11.73 dB 3:09 ?-Many Rivers to Cross
DR11 -0.01 dB -12.12 dB 2:46 ?-When You Count the Ones You Love
DR12 -0.01 dB -15.44 dB 2:39 ?-Sister Love
DR12 -0.55 dB -14.03 dB 2:55 ?-Sweet Years
--------------------------------------------------------------------------------
Number of tracks: 24
Official DR value: DR10
Samplerate: 44100 Hz
Channels: 2
Bits per sample: 16
Bitrate: 878 kbps
Codec: FLAC
================================================================================
 
CD 3
01. True Love (Demo) (4:43)
02. I Need Your Love (Demo) (4:09)
03. Goodbye My Love (Demo) (4:32)
04. How Do You Think I Feel (Demo) (5:19)
05. You Can't Slow Me Down (Demo) (3:48)
06. Why Should We Say Goodbye (Demo) (4:14)
07. Anything You Need (Demo) (4:01)
08. Your Love Will Be Sweeter Someday (Demo) (6:23)
09. I Love You More Today (Demo) (4:18)
10. I Can't Get Along Without You (Demo) (3:39)
11. I Can't Stand To Wait Much Longer (Demo) (4:58)
12. Fools Are The Only Ones Who Have To Cry (Demo) (3:29)
13. Without Your Love (Demo) (4:13)
14. Same Old Thing Called Love (Demo) (4:45)
15. God Can Stop The Rain From Falling (Demo) (5:47)
16. Radio Spot (1:03)
 
Лог создания рипа
Exact Audio Copy V1.0 beta 3 from 29. August 2011
EAC extraction logfile from 20. March 2013, 11:51
Lorraine Ellison / Sister Love; The Warner Bros. Recordings
Used drive : TSSTcorpCDDVDW SH-S203B Adapter: 2 ID: 0
Read mode : Secure
Utilize accurate stream : Yes
Defeat audio cache : Yes
Make use of C2 pointers : No
Read offset correction : 6
Overread into Lead-In and Lead-Out : No
Fill up missing offset samples with silence : Yes
Delete leading and trailing silent blocks : No
Null samples used in CRC calculations : Yes
Used interface : Native Win32 interface for Win NT & 2000
Gap handling : Appended to previous track
Used output format : Internal WAV Routines
Sample format : 44.100 Hz; 16 Bit; Stereo
TOC of the extracted CD
Track | Start | Length | Start sector | End sector
---------------------------------------------------------
1 | 0:00.00 | 4:42.40 | 0 | 21189
2 | 4:42.40 | 4:08.74 | 21190 | 39863
3 | 8:51.39 | 4:31.42 | 39864 | 60230
4 | 13:23.06 | 5:19.21 | 60231 | 84176
5 | 18:42.27 | 3:47.65 | 84177 | 101266
6 | 22:30.17 | 4:13.74 | 101267 | 120315
7 | 26:44.16 | 4:01.32 | 120316 | 138422
8 | 30:45.48 | 6:23.31 | 138423 | 167178
9 | 37:09.04 | 4:18.18 | 167179 | 186546
10 | 41:27.22 | 3:38.55 | 186547 | 202951
11 | 45:06.02 | 4:58.10 | 202952 | 225311
12 | 50:04.12 | 3:28.74 | 225312 | 240985
13 | 53:33.11 | 4:12.50 | 240986 | 259935
14 | 57:45.61 | 4:44.57 | 259936 | 281292
15 | 62:30.43 | 5:51.66 | 281293 | 307683
16 | 68:22.34 | 1:02.68 | 307684 | 312401
Track 1
Filename F:\Bazar\EAC\Lorraine Ellison § 2006 § Sister Love; The Warner Bros. Recordings\01 § True Love.wav
Pre-gap length 0:00:02.00
Peak level 77.9 %
Extraction speed 4.1 X
Track quality 99.9 %
Test CRC B7778BCB
Copy CRC B7778BCB
Accurately ripped (confidence 1) [FE674D96] (AR v1)
Copy OK
Track 2
Filename F:\Bazar\EAC\Lorraine Ellison § 2006 § Sister Love; The Warner Bros. Recordings\02 § I Need Your Love.wav
Peak level 75.4 %
Extraction speed 4.3 X
Track quality 99.9 %
Test CRC 9A4835ED
Copy CRC 9A4835ED
Accurately ripped (confidence 1) [8BCF304E] (AR v1)
Copy OK
Track 3
Filename F:\Bazar\EAC\Lorraine Ellison § 2006 § Sister Love; The Warner Bros. Recordings\03 § Goodbye My Love.wav
Peak level 59.7 %
Extraction speed 4.8 X
Track quality 99.9 %
Test CRC 7A1E12E8
Copy CRC 7A1E12E8
Accurately ripped (confidence 1) [7EEF5E1E] (AR v1)
Copy OK
Track 4
Filename F:\Bazar\EAC\Lorraine Ellison § 2006 § Sister Love; The Warner Bros. Recordings\04 § How Do You Think I Feel.wav
Peak level 62.2 %
Extraction speed 6.3 X
Track quality 100.0 %
Test CRC 6B748D93
Copy CRC 6B748D93
Accurately ripped (confidence 1) [38854041] (AR v1)
Copy OK
Track 5
Filename F:\Bazar\EAC\Lorraine Ellison § 2006 § Sister Love; The Warner Bros. Recordings\05 § You Can't Slow Me Down.wav
Peak level 78.7 %
Extraction speed 6.5 X
Track quality 100.0 %
Test CRC 73326B2B
Copy CRC 73326B2B
Accurately ripped (confidence 1) [81CD865F] (AR v1)
Copy OK
Track 6
Filename F:\Bazar\EAC\Lorraine Ellison § 2006 § Sister Love; The Warner Bros. Recordings\06 § Why Should We Say Goodbye.wav
Peak level 70.9 %
Extraction speed 5.5 X
Track quality 99.9 %
Test CRC EE89574A
Copy CRC EE89574A
Accurately ripped (confidence 1) [C887CDD2] (AR v1)
Copy OK
Track 7
Filename F:\Bazar\EAC\Lorraine Ellison § 2006 § Sister Love; The Warner Bros. Recordings\07 § Anything You Need.wav
Peak level 81.9 %
Extraction speed 7.1 X
Track quality 100.0 %
Test CRC 4BB9644E
Copy CRC 4BB9644E
Accurately ripped (confidence 1) [F5FC08F2] (AR v1)
Copy OK
Track 8
Filename F:\Bazar\EAC\Lorraine Ellison § 2006 § Sister Love; The Warner Bros. Recordings\08 § Your Love Will Be Sweeter Someday.wav
Peak level 71.5 %
Extraction speed 7.8 X
Track quality 100.0 %
Test CRC BD390B02
Copy CRC BD390B02
Accurately ripped (confidence 1) [B01A61A8] (AR v1)
Copy OK
Track 9
Filename F:\Bazar\EAC\Lorraine Ellison § 2006 § Sister Love; The Warner Bros. Recordings\09 § I Love You More Today.wav
Peak level 72.8 %
Extraction speed 7.6 X
Track quality 100.0 %
Test CRC 71074C07
Copy CRC 71074C07
Accurately ripped (confidence 1) [B734FF23] (AR v1)
Copy OK
Track 10
Filename F:\Bazar\EAC\Lorraine Ellison § 2006 § Sister Love; The Warner Bros. Recordings\10 § I Can't Get Along Without You.wav
Peak level 80.1 %
Extraction speed 7.9 X
Track quality 100.0 %
Test CRC 92F8FF39
Copy CRC 92F8FF39
Accurately ripped (confidence 1) [D4843FFD] (AR v1)
Copy OK
Track 11
Filename F:\Bazar\EAC\Lorraine Ellison § 2006 § Sister Love; The Warner Bros. Recordings\11 § I Can't Stand to Wait Much Longer.wav
Peak level 70.6 %
Extraction speed 7.1 X
Track quality 99.9 %
Test CRC 4F1FD9E6
Copy CRC 4F1FD9E6
Accurately ripped (confidence 1) [2B860630] (AR v1)
Copy OK
Track 12
Filename F:\Bazar\EAC\Lorraine Ellison § 2006 § Sister Love; The Warner Bros. Recordings\12 § Fools Are the Only Ones Who Have to Cry.wav
Peak level 75.6 %
Extraction speed 8.4 X
Track quality 100.0 %
Test CRC D7C9CCB9
Copy CRC D7C9CCB9
Accurately ripped (confidence 1) [21F3F18E] (AR v1)
Copy OK
Track 13
Filename F:\Bazar\EAC\Lorraine Ellison § 2006 § Sister Love; The Warner Bros. Recordings\13 § Without Your Love.wav
Peak level 60.2 %
Extraction speed 7.0 X
Track quality 99.9 %
Test CRC 84293B44
Copy CRC 84293B44
Accurately ripped (confidence 1) [696AAB3C] (AR v1)
Copy OK
Track 14
Filename F:\Bazar\EAC\Lorraine Ellison § 2006 § Sister Love; The Warner Bros. Recordings\14 § Same Old Thing Called Love.wav
Peak level 54.3 %
Extraction speed 8.7 X
Track quality 100.0 %
Test CRC BCD7FACD
Copy CRC BCD7FACD
Accurately ripped (confidence 1) [02E5E7B2] (AR v1)
Copy OK
Track 15
Filename F:\Bazar\EAC\Lorraine Ellison § 2006 § Sister Love; The Warner Bros. Recordings\15 § God Can Stop the Rain from Falling.wav
Peak level 68.9 %
Extraction speed 9.7 X
Track quality 100.0 %
Test CRC CE645870
Copy CRC CE645870
Accurately ripped (confidence 1) [EA26B894] (AR v1)
Copy OK
Track 16
Filename F:\Bazar\EAC\Lorraine Ellison § 2006 § Sister Love; The Warner Bros. Recordings\16 § Unknown Track.wav
Pre-gap length 0:00:04.45
Peak level 53.0 %
Extraction speed 6.8 X
Track quality 100.0 %
Test CRC 71DEA4A2
Copy CRC 71DEA4A2
Accurately ripped (confidence 1) [F5233B75] (AR v1)
Copy OK
All tracks accurately ripped
No errors occurred
End of status report
---- CUETools DB Plugin V2.1.3
[CTDB TOCID: 2M9QAGtmlojBxiNATTc0MLoFieA-] disk not present in database, Submit result: 2M9QAGtmlojBxiNATTc0MLoFieA- has been uploaded
==== Log checksum 86F14AD8B95E1F1D5F0A523261411B633ACEC2446666A4EE3FFC13BF4E9537A4 ====
 
Содержание индексной карты (.CUE)
REM GENRE Soul
REM DATE 2006
REM DISCID CE104510
REM COMMENT "ExactAudioCopy v1.0b3"
PERFORMER "Lorraine Ellison"
TITLE "Sister Love; The Warner Bros. Recordings"
FILE "01 § True Love.wav" WAVE
TRACK 01 AUDIO
TITLE "True Love"
PERFORMER "Lorraine Ellison"
INDEX 01 00:00:00
FILE "02 § I Need Your Love.wav" WAVE
TRACK 02 AUDIO
TITLE "I Need Your Love"
PERFORMER "Lorraine Ellison"
INDEX 01 00:00:00
FILE "03 § Goodbye My Love.wav" WAVE
TRACK 03 AUDIO
TITLE "Goodbye My Love"
PERFORMER "Lorraine Ellison"
INDEX 01 00:00:00
FILE "04 § How Do You Think I Feel.wav" WAVE
TRACK 04 AUDIO
TITLE "How Do You Think I Feel"
PERFORMER "Lorraine Ellison"
INDEX 01 00:00:00
FILE "05 § You Can't Slow Me Down.wav" WAVE
TRACK 05 AUDIO
TITLE "You Can't Slow Me Down"
PERFORMER "Lorraine Ellison"
INDEX 01 00:00:00
FILE "06 § Why Should We Say Goodbye.wav" WAVE
TRACK 06 AUDIO
TITLE "Why Should We Say Goodbye"
PERFORMER "Lorraine Ellison"
INDEX 01 00:00:00
FILE "07 § Anything You Need.wav" WAVE
TRACK 07 AUDIO
TITLE "Anything You Need"
PERFORMER "Lorraine Ellison"
INDEX 01 00:00:00
FILE "08 § Your Love Will Be Sweeter Someday.wav" WAVE
TRACK 08 AUDIO
TITLE "Your Love Will Be Sweeter Someday"
PERFORMER "Lorraine Ellison"
INDEX 01 00:00:00
FILE "09 § I Love You More Today.wav" WAVE
TRACK 09 AUDIO
TITLE "I Love You More Today"
PERFORMER "Lorraine Ellison"
INDEX 01 00:00:00
FILE "10 § I Can't Get Along Without You.wav" WAVE
TRACK 10 AUDIO
TITLE "I Can't Get Along Without You"
PERFORMER "Lorraine Ellison"
INDEX 01 00:00:00
FILE "11 § I Can't Stand to Wait Much Longer.wav" WAVE
TRACK 11 AUDIO
TITLE "I Can't Stand to Wait Much Longer"
PERFORMER "Lorraine Ellison"
INDEX 01 00:00:00
FILE "12 § Fools Are the Only Ones Who Have to Cry.wav" WAVE
TRACK 12 AUDIO
TITLE "Fools Are the Only Ones Who Have to Cry"
PERFORMER "Lorraine Ellison"
INDEX 01 00:00:00
FILE "13 § Without Your Love.wav" WAVE
TRACK 13 AUDIO
TITLE "Without Your Love"
PERFORMER "Lorraine Ellison"
INDEX 01 00:00:00
FILE "14 § Same Old Thing Called Love.wav" WAVE
TRACK 14 AUDIO
TITLE "Same Old Thing Called Love"
PERFORMER "Lorraine Ellison"
INDEX 01 00:00:00
FILE "15 § God Can Stop the Rain from Falling.wav" WAVE
TRACK 15 AUDIO
TITLE "God Can Stop the Rain from Falling"
PERFORMER "Lorraine Ellison"
INDEX 01 00:00:00
TRACK 16 AUDIO
TITLE "Unknown Track"
PERFORMER "Lorraine Ellison"
INDEX 00 05:47:21
FILE "16 § Unknown Track.wav" WAVE
INDEX 01 00:00:00
 
DR Log
foobar2000 1.1.10 / Dynamic Range Meter 1.1.1
log date: 2016-12-24 17:55:16
--------------------------------------------------------------------------------
Analyzed: Lorraine Ellison / Sister Love: The Warner Bros. Recordings
--------------------------------------------------------------------------------
DR Peak RMS Duration Track
--------------------------------------------------------------------------------
DR8 -2.16 dB -13.59 dB 4:43 ?-True Love
DR9 -2.45 dB -16.14 dB 4:09 ?-I Need Your Love
DR11 -4.48 dB -19.32 dB 4:32 ?-Goodbye My Love
DR13 -4.12 dB -22.24 dB 5:19 ?-How Do You Think I Feel
DR9 -2.08 dB -13.94 dB 3:48 ?-You Can't Slow Me Down
DR8 -2.98 dB -14.94 dB 4:14 ?-Why Should We Say Goodbye
DR11 -1.73 dB -17.35 dB 4:01 ?-Anything You Need
DR11 -2.91 dB -18.55 dB 6:23 ?-Your Love Will Be Sweeter Someday
DR10 -2.75 dB -15.71 dB 4:18 ?-I Love You More Today
DR11 -1.93 dB -16.91 dB 3:39 ?-I Can't Get Along Without You
DR11 -3.01 dB -18.05 dB 4:58 ?-I Can't Stand to Wait Much Longer
DR9 -2.42 dB -15.13 dB 3:29 ?-Fools Are the Only Ones Who Have to Cry
DR9 -4.40 dB -19.20 dB 4:13 ?-Without Your Love
DR9 -5.29 dB -19.69 dB 4:45 ?-Same Old Thing Called Love
DR10 -3.23 dB -17.64 dB 5:52 ?-God Can Stop the Rain from Falling
DR11 -5.51 dB -19.10 dB 1:03 ?-Unknown Track
--------------------------------------------------------------------------------
Number of tracks: 16
Official DR value: DR10
Samplerate: 44100 Hz
Channels: 2
Bits per sample: 16
Bitrate: 703 kbps
Codec: FLAC
================================================================================
 
Об альбоме (сборнике)
R&B singer Lorraine Ellison had exactly three entries in the R&B charts, but she was far more prolific than that would indicate. In addition to two 1965 Mercury singles, she recorded 48 sides and three albums for Warner Bros. Records between 1966 and 1973. With an incredible vocal power, range, and intensity that was perhaps too heavy for the record-buying masses, Ellison never made it big, except of course in the hearts of committed soul fans-and the occasional rock and pop buyer.
Ellison was born in North Philadelphia and began singing gospel with her family at age six. She sang professionally with a local group named the Sylvania Singers before forming the family group The Ellison Singers in the late '50s/early '60s. A self-penned 1963 single, “Open Up Your Heart,” was her first solo release, appearing on Sharp Records. Shortly thereafter Ellison launched her secular career in earnest, signing to Mercury Records and releasing 1965's “I Dig You Baby,” which made it to #22 on the R&B chart.
Warner's Jerry Ragovoy-who'd penned the Rolling Stones hit “Time Is On My Side” under the pseudonym Norman Meade-brought Ellison to the label and began writing and producing for her. Their first session produced the immortal #11 hit “Stay With Me,” which has since been covered by everyone from Bette Midler to Jimmy Witherspoon to Natalie Cole. The resulting album, 1966's Heart And Soul, was tailored to a jazz and pop crossover audience but never caught fire. Returning to straight R&B, Ellison delivered 1969's Stay With Me, which contained her final chart entry, “Heart Be Still.”
In 1973, after some aborted sessions at Muscle Shoals, Ellison, along with producer Ted Templeman, began work on what would become her final album, Lorraine Ellison. Funky and gospel inspired, the album, according to the singer, “contains more of what I'm all about.” After her final sessions in June 1973, Ellison retired from recording to spend time with her ailing mother. She continued to sing in church until her death from ovarian cancer in 1983 at the young age of 51.
This remastered three-disc box contains all three of Ellison's Warner Bros. albums, as well as 24 previously unreleased tracks, including 14 demos from 1972, a recent vault discovery.
Deeply steeped in gospel, Lorraine Ellison possessed a vocal range, power and intensity that was maybe TOO intense for the mainstream, and thus only scored three chart hits during her career. She's well known to soul fans, though, especially for the three classic albums she made for Warner Bros. in the `60s and `70s, Heart and Soul (1966), Stay with Me (1969) and Lorraine Ellison (1973), which appear here along with a full 24 unreleased tracks including 14 newly discovered demos from 1972! Soul expert extraordinaire David Nathan produces and annotates...limited edition of 5000 copies!
Приватный:
Нет (DHT включён)
Размер:
1.24 Гб (1,329,652,874 байт) » файлов: 86
Участники:
0 раздают, 0 качают (0 участников всего)
Внешние участники:
1 раздают, 0 качают (1 участников всего) [ Обновить ]
Есть вопросы - пишите личное сообщение пользователю M0p94ok.
12:32
107
Нет комментариев. Ваш будет первым!