Поиск

(Funk, Brass rock, Folk rock, Jazz rock) [CD] Lunacidal Tendencies - After The End - 2011 (Blue Sun), FLAC (tracks+.cue), lossless

(Funk, Brass rock, Folk rock, Jazz rock) [CD] Lunacidal Tendencies - After The End - 2011 (Blue Sun), FLAC (tracks+.cue), lossless
Треклист:



Lunacidal Tendencies - After The End - 2011 (Blue Sun)
Жанр: Funk, Brass rock, Folk rock, Jazz rock
Носитель:CD
Страна-производитель диска (релиза): Canada
Год издания: 2011
Издатель (лейбл): Blue Sun
Номер по каталогу: No number
Страна исполнителя (группы): Israel
Аудио кодек: FLAC (*.flac)
Тип рипа: (tracks .cue)
Битрейт аудио: lossless
Наличие сканов в содержимом раздачи: full scans, png, 300 dpi
Продолжительность: 1:15:15
Источник (релизер): Моя коллекция, мой рип
Трэклист:
1. Introduction
2. Common Is The Sense
3. The Waiting Room
4. If It Ain't Broke
5. Slow Down
6.Death Is Not Proof Of Existence or I've Done The Tango Alone
7. You're Not Of This World
8. Interlude
9. Dream A Dream
10. All Has Been Done
11. A New Way To Rhyme
12. Put Yourself First
13. Whoal Man
14. We've Come So Far
15. Epilogue
16. After The End
 
Лог создания рипа
Exact Audio Copy V1.0 beta 3 from 29. August 2011
EAC extraction logfile from 19. April 2015, 16:10
Lunacidal Tendencies / After The End
Used drive : HL-DT-STDVDRAM GH24NSB0 Adapter: 1 ID: 0
Read mode : Secure
Utilize accurate stream : Yes
Defeat audio cache : Yes
Make use of C2 pointers : No
Read offset correction : 6
Overread into Lead-In and Lead-Out : No
Fill up missing offset samples with silence : Yes
Delete leading and trailing silent blocks : No
Null samples used in CRC calculations : Yes
Used interface : Native Win32 interface for Win NT & 2000
Gap handling : Appended to previous track
Used output format : User Defined Encoder
Selected bitrate : 1024 kBit/s
Quality : High
Add ID3 tag : No
Command line compressor : C:\Program Files (x86)\Exact Audio Copy\Flac\flac.exe
Additional command line options : -V -8 -T "Genre=%genre%" -T "Artist=%artist%" -T "Title=%title%" -T "Album=%albumtitle%" -T "Date=%year%" -T "Tracknumber=%tracknr%" -T "Comment=%comment%" %source%
TOC of the extracted CD
Track | Start | Length | Start sector | End sector
---------------------------------------------------------
1 | 0:00.00 | 1:01.15 | 0 | 4589
2 | 1:01.15 | 4:32.50 | 4590 | 25039
3 | 5:33.65 | 4:54.30 | 25040 | 47119
4 | 10:28.20 | 3:43.24 | 47120 | 63868
5 | 14:11.44 | 3:00.38 | 63869 | 77406
6 | 17:12.07 | 3:44.19 | 77407 | 94225
7 | 20:56.26 | 5:17.11 | 94226 | 118011
8 | 26:13.37 | 1:07.41 | 118012 | 123077
9 | 27:21.03 | 6:57.69 | 123078 | 154421
10 | 34:18.72 | 3:28.34 | 154422 | 170055
11 | 37:47.31 | 8:48.67 | 170056 | 209722
12 | 46:36.23 | 2:31.57 | 209723 | 221104
13 | 49:08.05 | 4:27.59 | 221105 | 241188
14 | 53:35.64 | 4:06.68 | 241189 | 259706
15 | 57:42.57 | 0:51.56 | 259707 | 263587
16 | 58:34.38 | 5:41.08 | 263588 | 289170
17 | 64:15.46 | 11:00.18 | 289171 | 338688
Track 1
Filename D:\Musicgate for СПАМ Tendencies - After The End - 2011 (Blue Sun)\01. Introduction.wav
Pre-gap length 0:00:02.00
Peak level 70.7 %
Extraction speed 0.7 X
Track quality 100.0 %
Test CRC 7A5A6F6D
Copy CRC 7A5A6F6D
Track not present in AccurateRip database
Copy OK
Track 2
Filename D:\Musicgate for СПАМ Tendencies - After The End - 2011 (Blue Sun)\02. Common is the Sense.wav
Peak level 92.1 %
Extraction speed 1.2 X
Track quality 100.0 %
Test CRC 2570E86C
Copy CRC 2570E86C
Track not present in AccurateRip database
Copy OK
Track 3
Filename D:\Musicgate for СПАМ Tendencies - After The End - 2011 (Blue Sun)\03. The Waiting Room.wav
Peak level 96.0 %
Extraction speed 1.3 X
Track quality 100.0 %
Test CRC D010DA7E
Copy CRC D010DA7E
Track not present in AccurateRip database
Copy OK
Track 4
Filename D:\Musicgate for СПАМ Tendencies - After The End - 2011 (Blue Sun)\04. If it Aint Broke.wav
Peak level 98.7 %
Extraction speed 1.3 X
Track quality 100.0 %
Test CRC D787414B
Copy CRC D787414B
Track not present in AccurateRip database
Copy OK
Track 5
Filename D:\Musicgate for СПАМ Tendencies - After The End - 2011 (Blue Sun)\05. Slow Down.wav
Peak level 91.4 %
Extraction speed 1.4 X
Track quality 100.0 %
Test CRC 07C27FCC
Copy CRC 07C27FCC
Track not present in AccurateRip database
Copy OK
Track 6
Filename D:\Musicgate for СПАМ Tendencies - After The End - 2011 (Blue Sun)\06. Death is not Proof of Existence or Ive done the Tango Alone.wav
Peak level 90.3 %
Extraction speed 1.5 X
Track quality 100.0 %
Test CRC 50FF8406
Copy CRC 50FF8406
Track not present in AccurateRip database
Copy OK
Track 7
Filename D:\Musicgate for СПАМ Tendencies - After The End - 2011 (Blue Sun)\07. You're not of this World.wav
Peak level 98.7 %
Extraction speed 1.7 X
Track quality 100.0 %
Test CRC 926AEB34
Copy CRC 926AEB34
Track not present in AccurateRip database
Copy OK
Track 8
Filename D:\Musicgate for СПАМ Tendencies - After The End - 2011 (Blue Sun)\08. Interlude.wav
Peak level 76.3 %
Extraction speed 1.2 X
Track quality 100.0 %
Test CRC 15D0AF99
Copy CRC 15D0AF99
Track not present in AccurateRip database
Copy OK
Track 9
Filename D:\Musicgate for СПАМ Tendencies - After The End - 2011 (Blue Sun)\09. Dream a Dream.wav
Peak level 94.3 %
Extraction speed 1.9 X
Track quality 100.0 %
Test CRC 57496675
Copy CRC 57496675
Track not present in AccurateRip database
Copy OK
Track 10
Filename D:\Musicgate for СПАМ Tendencies - After The End - 2011 (Blue Sun)\10. All Has Been Done.wav
Pre-gap length 0:00:00.45
Peak level 97.8 %
Extraction speed 1.6 X
Track quality 99.9 %
Test CRC 7B3CF6F4
Copy CRC 7B3CF6F4
Track not present in AccurateRip database
Copy OK
Track 11
Filename D:\Musicgate for СПАМ Tendencies - After The End - 2011 (Blue Sun)\11. A New Way to Rhyme.wav
Peak level 95.6 %
Extraction speed 2.0 X
Track quality 99.9 %
Test CRC B0552C76
Copy CRC B0552C76
Track not present in AccurateRip database
Copy OK
Track 12
Filename D:\Musicgate for СПАМ Tendencies - After The End - 2011 (Blue Sun)\12. Put Yourself First.wav
Peak level 95.6 %
Extraction speed 1.9 X
Track quality 100.0 %
Test CRC A824755B
Copy CRC A824755B
Track not present in AccurateRip database
Copy OK
Track 13
Filename D:\Musicgate for СПАМ Tendencies - After The End - 2011 (Blue Sun)\13. Whoa!Man.wav
Peak level 96.3 %
Extraction speed 2.1 X
Track quality 100.0 %
Test CRC E228B153
Copy CRC E228B153
Track not present in AccurateRip database
Copy OK
Track 14
Filename D:\Musicgate for СПАМ Tendencies - After The End - 2011 (Blue Sun)\14. We've Come So Far.wav
Peak level 93.7 %
Extraction speed 2.1 X
Track quality 100.0 %
Test CRC E041DD9F
Copy CRC E041DD9F
Track not present in AccurateRip database
Copy OK
Track 15
Filename D:\Musicgate for СПАМ Tendencies - After The End - 2011 (Blue Sun)\15. Epilogue.wav
Pre-gap length 0:00:01.00
Peak level 71.0 %
Extraction speed 1.4 X
Track quality 100.0 %
Test CRC F98403D0
Copy CRC F98403D0
Track not present in AccurateRip database
Copy OK
Track 16
Filename D:\Musicgate for СПАМ Tendencies - After The End - 2011 (Blue Sun)\16. After The End.wav
Peak level 98.8 %
Extraction speed 2.3 X
Track quality 100.0 %
Test CRC 483CCFF8
Copy CRC 483CCFF8
Track not present in AccurateRip database
Copy OK
Track 17
Filename D:\Musicgate for СПАМ Tendencies - After The End - 2011 (Blue Sun)\17. Secret Track.wav
Peak level 99.8 %
Extraction speed 2.6 X
Track quality 100.0 %
Test CRC F4A8E957
Copy CRC F4A8E957
Track not present in AccurateRip database
Copy OK
None of the tracks are present in the AccurateRip database
No errors occurred
End of status report
==== Log checksum 4A1F301FE324A759398AC6E30C74A7E1917890F3FC0B92242BD0970684336353 ====
 
Содержание индексной карты (.CUE):
REM GENRE "Israeli Rock"
REM DATE 2011
REM DISCID F011A311
REM COMMENT "ExactAudioCopy v1.0b3"
PERFORMER "Lunacidal Tendencies"
TITLE "After The End"
FILE "01. Introduction.wav" WAVE
TRACK 01 AUDIO
TITLE "Introduction"
PERFORMER "Lunacidal Tendencies"
ISRC IL5021100001
INDEX 01 00:00:00
FILE "02. Common is the Sense.wav" WAVE
TRACK 02 AUDIO
TITLE "Common is the Sense"
PERFORMER "Lunacidal Tendencies"
ISRC IL5021100002
INDEX 01 00:00:00
FILE "03. The Waiting Room.wav" WAVE
TRACK 03 AUDIO
TITLE "The Waiting Room"
PERFORMER "Lunacidal Tendencies"
ISRC IL5021100003
INDEX 01 00:00:00
FILE "04. If it Aint Broke.wav" WAVE
TRACK 04 AUDIO
TITLE "If it Aint Broke"
PERFORMER "Lunacidal Tendencies"
ISRC IL5021100004
INDEX 01 00:00:00
FILE "05. Slow Down.wav" WAVE
TRACK 05 AUDIO
TITLE "Slow Down"
PERFORMER "Lunacidal Tendencies"
ISRC IL5021100005
INDEX 01 00:00:00
FILE "06. Death is not Proof of Existence or Ive done the Tango Alone.wav" WAVE
TRACK 06 AUDIO
TITLE "Death is not Proof of Existence or Ive done the Tango Alone"
PERFORMER "Lunacidal Tendencies"
ISRC IL5021100006
INDEX 01 00:00:00
FILE "07. You're not of this World.wav" WAVE
TRACK 07 AUDIO
TITLE "You're not of this World"
PERFORMER "Lunacidal Tendencies"
ISRC IL5021100007
INDEX 01 00:00:00
FILE "08. Interlude.wav" WAVE
TRACK 08 AUDIO
TITLE "Interlude"
PERFORMER "Lunacidal Tendencies"
ISRC IL5021100008
INDEX 01 00:00:00
FILE "09. Dream a Dream.wav" WAVE
TRACK 09 AUDIO
TITLE "Dream a Dream"
PERFORMER "Lunacidal Tendencies"
ISRC IL5021100009
INDEX 01 00:00:00
TRACK 10 AUDIO
TITLE "All Has Been Done"
PERFORMER "Lunacidal Tendencies"
ISRC IL5021100010
INDEX 00 06:57:24
FILE "10. All Has Been Done.wav" WAVE
INDEX 01 00:00:00
FILE "11. A New Way to Rhyme.wav" WAVE
TRACK 11 AUDIO
TITLE "A New Way to Rhyme"
PERFORMER "Lunacidal Tendencies"
ISRC IL5021100011
INDEX 01 00:00:00
FILE "12. Put Yourself First.wav" WAVE
TRACK 12 AUDIO
TITLE "Put Yourself First"
PERFORMER "Lunacidal Tendencies"
ISRC IL5021100012
INDEX 01 00:00:00
FILE "13. Whoa!Man.wav" WAVE
TRACK 13 AUDIO
TITLE "Whoa!Man"
PERFORMER "Lunacidal Tendencies"
ISRC IL5021100013
INDEX 01 00:00:00
FILE "14. We've Come So Far.wav" WAVE
TRACK 14 AUDIO
TITLE "We've Come So Far"
PERFORMER "Lunacidal Tendencies"
ISRC IL5021100014
INDEX 01 00:00:00
TRACK 15 AUDIO
TITLE "Epilogue"
PERFORMER "Lunacidal Tendencies"
ISRC IL5021100015
INDEX 00 04:05:68
FILE "15. Epilogue.wav" WAVE
INDEX 01 00:00:00
FILE "16. After The End.wav" WAVE
TRACK 16 AUDIO
TITLE "After The End"
PERFORMER "Lunacidal Tendencies"
ISRC IL5021100016
INDEX 01 00:00:00
FILE "17. Secret Track.wav" WAVE
TRACK 17 AUDIO
TITLE "Secret Track"
PERFORMER "Lunacidal Tendencies"
ISRC IL5021100017
INDEX 01 00:00:00
 
Лог проверки качества

 
Матрица
 
Об альбоме (сборнике):
MG: Гева Алон, Каролина, Кути (Офир Йекутиэль), Мика Садэ, Шанан Стрит - Это несколько наиболее известных имен среди 35 участников израильской супер-группы, выпустившей альбом 25 августа 2012. Не менее обширен и список стилей, которые в нем слышны - панк, фолк, блюз, джаз, фанк.... и все это нанизано на единый рок-н-рольный стержень. В Израиле такие супер-группы, состоящие из уже состоявшихся музыкантов, запомнившихся по другим составам - нечастое явление. Навскидку можно припомнить - "Sheshet (Шешет)", "Tuned Tone (Цлиль Мекуван)" и из последних, пожалуй только "Quartet (Ревия)", в который вошли Шем -Тов Леви, Шломо Идов, Эфраим Шамир и Алон Олеарчик >>>> Читать полностью
 
Состав
1. Introduction
Produced by Bryan Steiner
Lyrics by Bryan Steiner
Music by Bryan Steiner
Arranged by Jamie Candiloro, Elran Dekel and Bryan Steiner
Vocals: Bryan Steiner
Guitar: Bryan Steiner
2. Common Is The Sense
Produced by Ronen Kohavi and Elran Dekel
Lyrics by Bryan Steiner
Music by Ronen Kohavi and Elran Dekel
Arranged by Ronen Kohavi, Elran Dekel and Bryan Steiner
Brass arrangement: Jamie Candiloro
Vocals: Elran Dekel
Guitars: Ronen Kohavi
Bass: Chakamoon
Drums: Issar Tennenbaum
Trombone: Yair Slutzki
Trumpet: Sefi Tsizling
Tenor Saxophone: Shlomi Alon
Cello: Hadas Kleinman
Hammond: Kuti
Synthesizer: Elran Dekel
Match stick: Bryan Steiner
Backing vocals: Chakamoon, Ronen Kohavi and Bryan Steiner
3. The Waiting Room
Produced by Gadi Altman, Mika Sade, Elran Dekel and Bryan Steiner
Lyrics by Bryan Steiner
Music by Lunacidal Tendencies, Gadi Altman, Mika Sade and Elran Dekel
Arranged by Lunacidal Tendencies, Gadi Altman, Mika Sade, Elran Dekel, Chakamoon, Kuti and Bryan Steiner
Vocals: Gadi Altman and Mika Sade
Guitars: Gadi Altman and Jamie Candiloro
Bass: Chakamoon
Drums and Percussian: Kuti
Flute: Shlomi Alon
Hammond: Kuti
Backing vocals: Chakamoon and Elran Dekel
4. If It Ain't Broke
Produced by Elran Dekel
Lyrics by Bryan Steiner and Elran Dekel
Music by Elran Dekel
Arranged by Elran Dekel, Bryan Steiner, Shlomi Alon, Chakamoon, Kuti, Yair Slutzki and Sefi Tsizling
Vocals: Elran Dekel
Guitars: Shlomi Alon and Elran Dekel
Bass: Chakamoon
Drums and Percussion: Kuti
Trumpet: Sefi Tsizling
Trombone: Yair Slutzki
Tenor Saxophone: Shlomi Alon
Hammond: Kuti
Backing vocals: Mika Sade
5. Slow Down
Produced by Geva Alon
Lyrics by Bryan Steiner and Jeff Sollars
Music by Geva Alon
Arranged by Geva Alon, Elran Dekel, Saar Kedem and Matan Ashkenazi
Vocals: Geva Alon
Guitars: Geva Alon
Bass: Elran Dekel
Drums: Saar Kedem
Washboard: Matan Ashkenazi
Piano: Jamie Candiloro
Harmonica: Dani Dorchin
Backing Vocals: Matan Ashkenazi and Elran Dekel
6.Death Is Not Proof Of Existence or I've Done The Tango Alone
Produced by Bryan Steiner
Lyrics by Bryan Steiner and Evelyn Abel
Music by Bryan Steiner
Arranged by Bryan Steiner and Geva Alon
Vocals: Bryan Steiner
Guitars: Geva Alon
Bass: Chakamoon
Harmonica: Dani Dorchin
Backing vocals: Geva Alon and Elran Dekel
7. You're Not Of This World
Produced by Shlomi Alon and Elran Dekel
Lyrics by Bryan Steiner
Music by Shlomi Alon and Elran Dekel
Arranged by Shlomi Alon, Elran Dekel, Chakamoon, Karolina, Kuti, Bryan Steiner and Sefi Tsizling
Vocals: Elran Dekel and Karolina
Piano: Shlomi Alon
Bass: Chakamoon Drums and Percussion: Kuti
Trumpet: Sefi Tsizling
Guitar:. Uzi Ramirez
Soprano Saxophone: Shlomi Alon
Hammond: Kuti
8. Interlude
Produced by Bryan Steiner
Lyrics by Bryan Steiner
Music by Shlomi Alon and Jamie Candilro
Arranged by Jamie Candilro, Elran Dekel and Bryan Steiner
Vocals: Bryan Steiner
Piano: Shlomi Alon
9. Dream A Dream
Produced by Mika Sade, Elran Dekel and Bryan Steiner
Lyrics by Bryan Steiner
Music by Lunacidal Tendencies, Mika Sade, Chakamoon, Elran Dekel, Ronen Kohavi, Issar Tennenbaum and Sefi Tsizling
Arranged by Lunacidal Tendencies, Jamie Candiloro, Chakamoon, Elran Dekel, Ronen Kohavi, Mika Sade, Bryan Steiner, Issar Tennenbaum and Sefi Tsizling
Vocals: Mika Sade
Guitars: Ronen Kohavi, Elran Dekel and Shy Pridor
Bass: Chakamoon
Drums: Issar Tennenbaum
Trumpet: Sefi Tsizling
Hammond: Kuti
Percussion: Elran Dekel
10. All Has Been Done
Produced by Elran Dekel
Lyrics by Bryan Steiner
Music by Elran Dekel
Arranged by Elran Dekel and Yair Slutzki
Vocals: Elran Dekel Guitar: Elran Dekel
Trombone: Yair Slutzki
Piano: Jamie Candiloro
Bass: Chakamoon
Backing vocals: Mika Sade
11. A New Way To Rhyme
Produced by Jamie Candiloro, Elran Dekel and Bryan Steiner
Lyrics by Bryan Steifier
Music by Lunacidal Tendencies, Shlomi Alon, Elran Dekel, Kuti and Bryan Steiner
Arranged by Lunacidal Tendencies, Shlomi Alon, Jamie Candiloro, Elran Dekel, Kuti and Bryan Steiner
Vocals: Geva Alon, Shlomi Alon, Chakamoon, Elran Dekel,
Yossi Lugasy, Shy Pridor, Mika Sade, Bryan Steiner and Yamit Satat Steiner
Guitars: Kuti, Shy Pridor and Eyal Dayan
Bass: Elran Dekel
Drums: Shlomi Alon
Piano: Jamie Candiloro
Banjo: Uzi Ramirez
Harmonica: Dani Dorchin
Hammond: Kuti
Percussion: Kuti
12. Put Yourself First
Produced by Chakamoon
Lyrics by Bryan Steiner
Music by Chakamoon
Arranged by Chakamoon, Elran Dekel, Ronen Kohavi and Issar Tennenbaum
Vocals: Chakamoon
Guitars: Ronen Kohavi and Chakamoon
Bass: Elran Dekel
Drums: Issar Tennenbaum
Hammond: Kuti
Rhodes: Jamie Candiloro
Percussion: Elran Dekel
Backing Vocals: Solange Raulston
13. Whoal Man
Produced by Shlomi Alon, Elran Dekel and Bryan Steiner
Lyrics by Bryan Steiner
Music by Lunacidal Tendencies, Shlomi Alon, Elran Dekel and Bryan Steiner
Arranged by Shlomi Alon, Elran Dekel, Bryan Steiner,
Chakamoon, Kuti and Sefi Tsizling
Vocals: Bryan Steiner
Guitars: Kuti and Eyal Dayan
Bass: Elran Dekel
Drums: Chakamoon
Piano: Shlomi Alon
Harmonica: Dani Dorchin
Backing vocals: Roy Aji, Gadi Altman, Dani Dorchin, Aliza Hava, Eran Jago, Saar Kedem, Ben Ma, Noga Majar, Armond Pain, Tomer Petrover, Shy Pridor, Sivan Rodnitsky and Amit Sagie
14. We've Come So Far
Produced by Gadi Altman and Ronen Kohavi
Lyrics by Bryan Steiner
Music by Lunacidal Tendencies, Gadi Altman, Ronen Kohavi, Shlomi Alon, Elran Dekel, Kuti, Bryan Steiner and Shaanan Streett
Arranged by Lunacidal Tendencies, Gadi Altman, Ronen Kohavi, Shlomi Alon, Elran Dekel, Kuti and Shaanan Streett
Vocals: Gadi Altman, Elran Dekel and Shaanan Streett
Guitars: Ronen Kohavi and Gadi Altman
Bass: Gadi Altman
Drums: Kuti
Tenor Saxophone: Shlomi Alon
Trumpet: Sefi Tsizling
Trombone: Yair Slutzki
Hammond: Kuti
Backing vocals: Shlomi Alon, Chakamoon, Ronen Kohavi and Bryan Steiner
15. Epilogue
Produced by Bryan Steiner
Lyrics by Bryan Steiner
Music by Geva Alon
Arranged by Jamie Candiloro, Elran Dekel and Bryan Steiner
Vocals: Bryan Steiner
Guitar: Geva Alon
16. After The End
Produced by Geva Alon
Lyrics by Bryan Steiner
Music by Geva Alon
Arranged by Geva Alon, Chakamoon, Issar Tennenbaum,
Elran Dekel and Bryan Steiner
Vocals: Geva Alon
Guitars: Geva Alon
Bass: Chakamoon
Drums: Issar Tennenbaum
Piano: Jamie Candiloro
Backing vocals: Elran Dekel, Aliza Hava and Mika Sade

Приватный:
Нет (DHT включён)
Размер:
552.12 Мб (578,942,951 байт) » файлов: 39
Участники:
0 раздают, 0 качают (0 участников всего)
Внешние участники:
2 раздают, 1 качают (3 участников всего) [ Обновить ]
Есть вопросы - пишите личное сообщение пользователю M0p94ok.
12:30
79
Нет комментариев. Ваш будет первым!