Поиск

(Funk, Soul) [CD] Hannah Williams & The Affirmations - Late Nights & Heartbreak - 2016, FLAC (image+.cue), lossless

(Funk, Soul) [CD] Hannah Williams & The Affirmations - Late Nights & Heartbreak - 2016, FLAC (image+.cue), lossless
Треклист:
Hannah Williams & The Affirmations / Late Nights & Heartbreak
Жанр: Funk, Soul
Носитель: CD
Страна-производитель диска (релиза): Italy
Год издания: 2016
Издатель (лейбл): Record Kicks
Номер по каталогу: RKX 063
Страна исполнителя (группы): UK
Аудиокодек: FLAC (*.flac)
Тип рипа: image+.cue
Битрейт аудио: lossless
Продолжительность: 1:00:56
Источник (релизер): gssmg7
Наличие сканов в содержимом раздачи: да
Треклист:
01. Tame In The Water - 04:26
02. Dazed and Confused - 06:19
03. Fighting Your Shadow - 03:20
04. Woman Got Soul - 05:39
05. Ain' t Enough - 03:31
06. Fool - 03:17
07. Late Nights & Heartbreak - 04:15
08. In Your Arms - 04:25
09. Still In My Head - 08:28
10. Callin' Me Back - 02:59
11. 7am to Seville - 05:34
12. Another Sunrise - 03:52
13. Your Luck Can Change - 04:46
http://www.recordkicks.com/releases/Late-Nights-Heartbreak
 
Лог создания рипа
Exact Audio Copy V1.0 beta 2 from 29. April 2011
EAC extraction logfile from 22. December 2016, 23:12
Hannah Williams & The Affirmations / Late Nights & Heartbreak
Used drive : Optiarc DVD RW AD-5280S Adapter: 1 ID: 1
Read mode : Secure
Utilize accurate stream : Yes
Defeat audio cache : Yes
Make use of C2 pointers : No
Read offset correction : 48
Overread into Lead-In and Lead-Out : No
Fill up missing offset samples with silence : Yes
Delete leading and trailing silent blocks : No
Null samples used in CRC calculations : Yes
Used interface : Installed external ASPI interface
Used output format : User Defined Encoder
Selected bitrate : 128 kBit/s
Quality : High
Add ID3 tag : No
Command line compressor : C:\Program Files\FLAC\flac.exe
Additional command line options : -V -8 -T "Genre=%genre%" -T "Artist=%artist%" -T "Title=%title%" -T "Album=%albumtitle%" -T "Date=%year%" -T "Tracknumber=%tracknr%" -T "Comment=%comment%" %source%
TOC of the extracted CD
Track | Start | Length | Start sector | End sector
---------------------------------------------------------
1 | 0:00.00 | 4:26.64 | 0 | 20013
2 | 4:26.64 | 6:19.07 | 20014 | 48445
3 | 10:45.71 | 3:20.11 | 48446 | 63456
4 | 14:06.07 | 5:39.72 | 63457 | 88953
5 | 19:46.04 | 3:31.60 | 88954 | 104838
6 | 23:17.64 | 3:17.67 | 104839 | 119680
7 | 26:35.56 | 4:15.05 | 119681 | 138810
8 | 30:50.61 | 4:25.36 | 138811 | 158721
9 | 35:16.22 | 8:28.10 | 158722 | 196831
10 | 43:44.32 | 2:59.30 | 196832 | 210286
11 | 46:43.62 | 5:34.40 | 210287 | 235376
12 | 52:18.27 | 3:52.04 | 235377 | 252780
13 | 56:10.31 | 4:46.04 | 252781 | 274234
Range status and errors
Selected range
Filename C:\Hannah Williams & The Affirmations (2016) - Late Nights & Heartbreak\Hannah Williams & The Affirmations (2016) - Late Nights & Heartbreak.wav
Peak level 98.2 %
Extraction speed 4.1 X
Range quality 100.0 %
Test CRC F63F68BA
Copy CRC F63F68BA
Copy OK
No errors occurred
AccurateRip summary
Track 1 not present in database
Track 2 not present in database
Track 3 not present in database
Track 4 not present in database
Track 5 not present in database
Track 6 not present in database
Track 7 not present in database
Track 8 not present in database
Track 9 not present in database
Track 10 not present in database
Track 11 not present in database
Track 12 not present in database
Track 13 not present in database
None of the tracks are present in the AccurateRip database
End of status report
==== Log checksum 417D979331C20DE92FFE3832D65ED2D548C8A8AA590FBCFA8E9BE2FB6867AD55 ====
 
Содержание индексной карты (.CUE)
REM GENRE Funk
REM DATE 2016
REM DISCID C70E480D
REM COMMENT "ExactAudioCopy v1.0b2"
PERFORMER "Hannah Williams & The Affirmations"
TITLE "Late Nights & Heartbreak"
FILE "Hannah Williams & The Affirmations (2016) - Late Nights & Heartbreak.flac" WAVE
TRACK 01 AUDIO
TITLE "Tame In The Water"
PERFORMER "Hannah Williams & The Affirmations"
ISRC ITG581600017
INDEX 01 00:00:00
TRACK 02 AUDIO
TITLE "Dazed And Confused"
PERFORMER "Hannah Williams & The Affirmations"
ISRC ITG581600018
INDEX 01 04:26:64
TRACK 03 AUDIO
TITLE "Fighting Your Shadow"
PERFORMER "Hannah Williams & The Affirmations"
ISRC ITG581600019
INDEX 01 10:45:71
TRACK 04 AUDIO
TITLE "Woman Got Soul"
PERFORMER "Hannah Williams & The Affirmations"
ISRC ITG581600020
INDEX 01 14:06:07
TRACK 05 AUDIO
TITLE "Ain't Enough"
PERFORMER "Hannah Williams & The Affirmations"
ISRC ITG581600021
INDEX 00 19:42:59
INDEX 01 19:46:04
TRACK 06 AUDIO
TITLE "Fool"
PERFORMER "Hannah Williams & The Affirmations"
ISRC ITG581600022
INDEX 01 23:17:64
TRACK 07 AUDIO
TITLE "Late Nights & Heartbreak"
PERFORMER "Hannah Williams & The Affirmations"
ISRC ITG581600023
INDEX 01 26:35:56
TRACK 08 AUDIO
TITLE "In Your Arms"
PERFORMER "Hannah Williams & The Affirmations"
ISRC ITG581600024
INDEX 01 30:50:61
TRACK 09 AUDIO
TITLE "Still In My Head"
PERFORMER "Hannah Williams & The Affirmations"
ISRC ITG581600025
INDEX 00 35:14:36
INDEX 01 35:16:22
TRACK 10 AUDIO
TITLE "Callin' Me Back"
PERFORMER "Hannah Williams & The Affirmations"
ISRC ITG581600026
INDEX 00 43:42:02
INDEX 01 43:44:32
TRACK 11 AUDIO
TITLE "7am To Seville"
PERFORMER "Hannah Williams & The Affirmations"
ISRC ITG581600027
INDEX 01 46:43:62
TRACK 12 AUDIO
TITLE "Another Sunrise"
PERFORMER "Hannah Williams & The Affirmations"
ISRC ITG581600028
INDEX 00 52:16:42
INDEX 01 52:18:27
TRACK 13 AUDIO
TITLE "Your Luck Can Change"
PERFORMER "Hannah Williams & The Affirmations"
ISRC ITG581600029
INDEX 01 56:10:31
 
Доп. информация
Recorded October 2015 – February 2016 at Quatermass Sound, London
 
Состав
Hannah Williams - lead vocals
The Affirmations are:
James Graham - organ, piano and wurlitzer
Adam Holgate – guitar
Adam Newton - bass guitar
Jai Widdowson-Jones - drums
Nicholas Malcolm - trumpet
Liam Treasure - trombone
John Pratt - baritone saxophone
Victoria Klewin, Hannah Nicholson and Hannah Williams - backing vocals.
Additional musicians:
Raven Bush - strings on track 2 and track 7
Harriet „Vibes‟ Riley - vibraphone on track 8, track 9 and track 13
Malcolm Catto - additional percussion
Приватный:
Нет (DHT включён)
Размер:
450.66 Мб (472,552,954 байт) » файлов: 5
Участники:
0 раздают, 0 качают (0 участников всего)
Внешние участники:
3 раздают, 1 качают (4 участников всего) [ Обновить ]
No seeders - write a personal message to user M0p94ok. Нет сидеров - пишите личное сообщение пользователю M0p94ok.
12:30
118
Нет комментариев. Ваш будет первым!